Эта прелестная девушка / This Charming Girl (Ли Юн-Ки / Lee Yoon-ki) [2004, Южная Корея, Драма, DVDRip] VO D.I.M.

Ответить на тему
 
Автор Сообщение

user ®

Стаж: 13 лет

Сообщений: 15071

Пост Пост: #1 от 07-Сен-2013 14:25

[Цитировать]

Эта прелестная девушка / This Charming Girl
Страна: Южная Корея
Жанр: Драма
Год выпуска: 2004
Продолжительность: 1:39:39
Перевод: Одноголосый закадровый D.I.M.
Cубтитры: нет
Режиссер: Ли Юн-Ки / Lee Yoon-ki
В ролях: Хван Чжон-Мин / Hwang Jeong-min
Ким Джи-Су / Kim Ji-su
Ким Ми-Сон / Kim Mi-seong
Описание: Чжон Хэ работает на почте и ей двадцать с небольшим лет.
Она живёт монотонной обычной жизнью.
Она добрая, деликатная и своеобразная.
И ей нравится жить самой по себе.
Когда она приносит домой бездомного котёнка,
она вспоминает свою умершую мать.
А когда начинающий писатель, который приходит на почту,
начинает проявлять к ней интерес, её душевное спокойствие нарушается,
и забытая, вроде бы с годами, травма начинает всплывать в её памяти...
Это шестьдесят третий фильм с моим переводом и озвучкой, выложенный здесь.
Сэмпл: http://multi-up.com/901009
Качество видео: DVDRip
Формат видео: AVI
Видео: 720*416 (16:9), 23,976 fps, MPEG-4 Visual (XviD) ~ 1828 kbps avg, 0.255 bit/pixel
Аудио: MPEG Audio Layer 3, 48000Hz, stereo, 128kbps

MediaInfo

Общее
Полное имя : D:\TORENT\РАЗДАЧИ (РИПЫ)\This Charming Girl.avi
Формат : AVI
Формат/Информация : Audio Video Interleave
Размер файла : 1,37 Гбайт
Продолжительность : 1 ч. 39 м.
Общий поток : 1965 Кбит/сек
Программа кодирования : VirtualDubModRus 1.5.10.2 (build 2542/release)
Библиотека кодирования : VirtualDubMod build 2542/release
Видео
Идентификатор : 0
Формат : MPEG-4 Visual
Профиль формата : Advanced Simple@L5
Параметр BVOP формата : 1
Параметр QPel формата : Нет
Параметр GMC формата : Без точки перехода
Параметр матрицы формата : Выборочная
Идентификатор кодека : XVID
Идентификатор кодека/Подсказка : XviD
Продолжительность : 1 ч. 39 м.
Битрейт : 1828 Кбит/сек
Ширина : 720 пикс.
Высота : 416 пикс.
Соотношение сторон : 16:9
Частота кадров : 23,976 кадр/сек
Цветовое пространство : YUV
Подвыборка цветности : 4:2:0
Битовая глубина : 8 бит
Тип развёртки : Прогрессивная
Метод сжатия : С потерями
Бит/(Пиксели*Кадры) : 0.255
Размер потока : 1,27 Гбайт (93%)
Библиотека кодирования : XviD 63
Аудио
Идентификатор : 1
Формат : MPEG Audio
Версия формата : Version 1
Профиль формата : Layer 3
Режим : Joint stereo
Расширение режима : MS Stereo
Идентификатор кодека : 55
Идентификатор кодека/Подсказка : MP3
Продолжительность : 1 ч. 39 м.
Вид битрейта : Постоянный
Битрейт : 128 Кбит/сек
Канал(ы) : 2 канала(ов)
Частота : 48,0 КГц
Метод сжатия : С потерями
Размер потока : 91,2 Мбайт (7%)
Выравнивание : Соединение по промежуткам
Продолжительность промежутка : 42 мс. (1,00 видеокадр)
Время предзагрузки промежутка : 504 ms
Библиотека кодирования : LAME3.98.2
Язык : Russian

Скриншот c названием фильма

Скриншоты

Скачать

Скачать торрент! Эта прелестная девушка / This Charming Girl (Ли Юн-Ки / Lee Yoon-ki) [2004, Южная Корея, Драма, DVDRip] VO D.I.M.

Как скачивать? · Что такое торрент? · Рейтинг и ограничения

Сайт не распространяет и не хранит электронные версии произведений, а лишь предоставляет доступ к создаваемому пользователями каталогу ссылок на торрент-файлы, которые содержат только списки хеш-сумм

[Профиль] [ЛС]
Показать сообщения:    
Ответить на тему

Текущее время: Сегодня 20:47

Часовой пояс: GMT + 4



Вы не можете начинать темы
Вы не можете отвечать на сообщения
Вы не можете редактировать свои сообщения
Вы не можете удалять свои сообщения
Вы не можете голосовать в опросах
Вы не можете прикреплять файлы к сообщениям
Вы не можете скачивать файлы