Схватка / Ragada (Виру Потла / Veeru Potla) [2010, Индия, Боевик, HDRip] VO (zamez)

Ответить на тему
 
Автор Сообщение

user ®

Стаж: 12 лет

Сообщений: 15125

Пост Пост: #1 от 06-Сен-2013 19:30

[Цитировать]

Схватка / Ragada
Страна: Индия
Жанр: Боевик
Год выпуска: 2010
Продолжительность: 02:26:32
Перевод: Одноголосый закадровый zamez
Cубтитры: нет
Режиссер: Виру Потла / Veeru Potla
В ролях: Нагарджуна Акинени, Анушка Шетти, Приямани, Прадип Рават, Шриниваса Рао Кота, Дев Гилл, Брахманандам, Рагху Бабу, Таникелла Бхарани
Описание: Он ворвался в Хайдарабад, в царство, где уже 20 лет правит Педанна, как ветер...Он смел всех на своем пути. Для него нет преград. Он умен, смел, находчив, хитер, к тому же чертовски красив и привлекателен. Откуда он? Зачем приехал в город? Кто он такой? И где он научился так драться? Что им движет? Чего он ищет? Одни вопросы... Ответы можно найти в фильме...а еще можно насладиться великолепнейшей игрой Нагарджуны, красотой Аннушки...замечательнейшим саундтреком. Вашему вниманию изумительный коктейль, приправленный пряными специями под горячим названием "Схватка".
Сэмпл: http://multi-up.com/900640
Качество видео: HDRip
Формат видео: AVI
Видео: XviD build 50, 688x288 (2.39:1), 24.000 fps, 1289 kbps avg
Аудио: MPEG Layer 3, 48 kHz, 2/0 (L,R) ch, 128.00 kbps avg

MediaInfo

General
Complete name : D:\Shvatka.2010.XviD.HDRip-Dego.avi
Format : AVI
Format/Info : Audio Video Interleave
File size : 1.46 GiB
Duration : 2h 26mn
Overall bit rate : 1 427 Kbps
Writing application : VirtualDubMod 1.5.10.2 (build 2540/release)
Writing library : VirtualDubMod build 2540/release
Video
ID : 0
Format : MPEG-4 Visual
Format profile : AdvancedSimple@L5
Format settings, BVOP : Yes
Format settings, QPel : No
Format settings, GMC : No warppoints
Format settings, Matrix : Default (MPEG)
Codec ID : XVID
Codec ID/Hint : XviD
Duration : 2h 26mn
Bit rate : 1 290 Kbps
Width : 688 pixels
Height : 288 pixels
Display aspect ratio : 2.35
Frame rate : 24.000 fps
Resolution : 24 bits
Colorimetry : 4:2:0
Scan type : Progressive
Bits/(Pixel*Frame) : 0.271
Stream size : 1.32 GiB (90%)
Writing library : XviD 1.2.1 (UTC 2008-12-04)
Audio
ID : 1
Format : MPEG Audio
Format version : Version 1
Format profile : Layer 3
Codec ID : 55
Codec ID/Hint : MP3
Duration : 2h 26mn
Bit rate mode : Constant
Bit rate : 128 Kbps
Channel(s) : 2 channels
Sampling rate : 48.0 KHz
Resolution : 16 bits
Stream size : 134 MiB (9%)
Alignment : Aligned on interleaves
Interleave, duration : 42 ms (1.00 video frame)
Interleave, preload duration : 504 ms
Writing library : LAME3.98r
Encoding settings : -m s -V 4 -q 2 -lowpass 17 -b 128

Скриншот c названием фильма

Скриншоты

Скачать

Скачать торрент! Схватка / Ragada (Виру Потла / Veeru Potla) [2010, Индия, Боевик, HDRip] VO (zamez)

Как скачивать? · Что такое торрент? · Рейтинг и ограничения

Сайт не распространяет и не хранит электронные версии произведений, а лишь предоставляет доступ к создаваемому пользователями каталогу ссылок на торрент-файлы, которые содержат только списки хеш-сумм

[Профиль] [ЛС]
Показать сообщения:    
Ответить на тему

Текущее время: Сегодня 00:24

Часовой пояс: GMT + 4



Вы не можете начинать темы
Вы не можете отвечать на сообщения
Вы не можете редактировать свои сообщения
Вы не можете удалять свои сообщения
Вы не можете голосовать в опросах
Вы не можете прикреплять файлы к сообщениям
Вы не можете скачивать файлы