Войны орков / Orc Wars (Кол Гласс / Kohl Glass) [2013, США, боевик, DVDRip] DVO (НТВ+)

Ответить на тему
 
Автор Сообщение

user ®

Стаж: 7 лет 7 месяцев

Сообщений: 20008

Пост Пост: #1 от 04-Сен-2013 17:35

[Цитировать]

Войны орков / Orc Wars-
Год выпуска: 2013
Страна: США
Жанр: Боевик
Продолжительность: 01:37:21
Перевод: Профессиональный (двухголосый закадровый) |НТВ+|
Оригинальная аудиодорожка: Тайский
Субтитры: Нет-Режиссёр:
Кол Гласс / Kohl Glass-В ролях:
Расти Джойнер, Масьела Луша, Уэсли Джон, Айзек С. Синглтон мл., Маклейн Нельсон, Адам Джонсон, Клэр Нидерпрюэм, Джейк Ван Вагонер, Роки Майерс, Марк Броксмит-Описание:
Спасаясь от армии орков, принцесса Алея открывает магический портал и попадает в наш мир. Однако и здесь кровожадные дикари продолжают её преследовать. К счастью, девушка находит себе защитника в лице бывшего морпеха Джона, который с помощью незнакомого оркам огнестрельного оружия, легко даёт отпор преследователям. Однако, когда те призывают к себе на помощь настоящего дракона, Джон понимает, что без помощи друзей и тяжелой техники здесь не обойтись...- | -Качество: DVDRip Сэмпл
Формат: AVI
Видео кодек: XviD
Аудио кодек: AC3
Видео: 720x404 (1.78:1), 29.970 fps, XviD MPEG-4 ~1392 kbps avg, 0.16 bit/pixel
Аудио: 48 kHz, AC3 Dolby Digital, 2/0 (L,R) ch, ~160 kbps [Russian]
Аудио: 48 kHz, AC3 Dolby Digital, 3/2 (L,C,R,l,r) + LFE ch, ~448.00 kbps avg [Thai]

MediaInfo

Общее
Полное имя : N:\Vojny.orkov.2013.P.DVDRip.avi
Формат : AVI
Формат/Информация : Audio Video Interleave
Размер файла : 1,37 Гбайт
Продолжительность : 1 ч. 37 м.
Общий поток : 2019 Кбит/сек
Программа кодирования : VirtualDubMod 1.5.10.2 (build 2540/release)
Библиотека кодирования : VirtualDubMod build 2540/release
Видео
Идентификатор : 0
Формат : MPEG-4 Visual
Профиль формата : Advanced Simple@L4
Параметр BVOP формата : Нет
Параметр QPel формата : Нет
Параметр GMC формата : Без точки перехода
Параметр матрицы формата : Default (H.263)
Идентификатор кодека : XVID
Идентификатор кодека/Подсказка : XviD
Продолжительность : 1 ч. 37 м.
Битрейт : 1393 Кбит/сек
Ширина : 720 пикселей
Высота : 404 пикселя
Соотношение сторон : 16:9
Частота кадров : 29,970 кадров/сек
Цветовое пространство : YUV
Субдискретизация насыщенности : 4:2:0
Битовая глубина : 8 бит
Тип развёртки : Прогрессивная
Метод сжатия : С потерями
Бит/(Пиксели*Кадры) : 0.160
Размер потока : 970 Мбайт (69%)
Библиотека кодирования : Magic0432
Аудио #1
Идентификатор : 1
Формат : AC-3
Формат/Информация : Audio Coding 3
Расширение режима : CM (complete main)
Параметр Endianness формата : Big
Идентификатор кодека : 2000
Продолжительность : 1 ч. 37 м.
Вид битрейта : Постоянный
Битрейт : 160 Кбит/сек
Каналы : 2 канала
Расположение каналов : Front: L R
Частота : 48,0 КГц
Битовая глубина : 16 бит
Метод сжатия : С потерями
Размер потока : 111 Мбайт (8%)
Выравнивание : Разделение по промежуткам
Продолжительность промежутка : 33 мс. (1,00 видеокадр)
Время предзагрузки промежутка : 500 мс.
Аудио #2
Идентификатор : 2
Формат : AC-3
Формат/Информация : Audio Coding 3
Расширение режима : CM (complete main)
Параметр Endianness формата : Big
Идентификатор кодека : 2000
Продолжительность : 1 ч. 37 м.
Вид битрейта : Постоянный
Битрейт : 448 Кбит/сек
Каналы : 6 каналов
Расположение каналов : Front: L C R, Side: L R, LFE
Частота : 48,0 КГц
Битовая глубина : 16 бит
Метод сжатия : С потерями
Размер потока : 312 Мбайт (22%)
Выравнивание : Разделение по промежуткам
Продолжительность промежутка : 33 мс. (1,00 видеокадр)
Время предзагрузки промежутка : 500 мс.

-

Скриншоты


Скачать

Скачать торрент!

Как скачивать? · Что такое торрент? · Рейтинг и ограничения

Сайт не распространяет и не хранит электронные версии произведений, а лишь предоставляет доступ к создаваемому пользователями каталогу ссылок на торрент-файлы, которые содержат только списки хеш-сумм

[Профиль] [ЛС]
Показать сообщения:    
Ответить на тему

Текущее время: Сегодня 19:42

Часовой пояс: GMT + 4



Вы не можете начинать темы
Вы не можете отвечать на сообщения
Вы не можете редактировать свои сообщения
Вы не можете удалять свои сообщения
Вы не можете голосовать в опросах
Вы не можете прикреплять файлы к сообщениям
Вы не можете скачивать файлы