Война миров Z / World War Z (Марк Форстер / Marc Forster) [2013, США, Мальта, ужасы, фантастика, боевик, триллер, драма, HDRip] [Расширенная версия] Dub (Звук с TS)

Ответить на тему
 
Автор Сообщение

user ®

Стаж: 7 лет 7 месяцев

Сообщений: 20008

Пост Пост: #1 от 04-Сен-2013 14:25

[Цитировать]

Война миров Z / World War Z / Расширенная версия
Страна: США, Мальта
Жанр: ужасы, фантастика, боевик, триллер, драма
Год выпуска: 2013
Продолжительность: 02:03:03
Перевод: Профессиональный (дублированный) [Звук с TS]
Cубтитры: нет
Оригинальная аудиодорожка: нет
Режиссер: Марк Форстер / Marc Forster
В ролях: Брэд Питт, Эрик Уэст, Мэттью Фокс, Дэвид Морс, Джеймс Бэдж Дэйл, Мирей Инос, Дэвид Эндрюс, Мишель Хайсмэн, Джулиан Сигер, Элайес Габел
Описание: Нападение живых мертвецов — не шутка и не сказка. Зомби в одночасье стали реальностью — и реальность эта грозит гибелью всему человечеству. Гниющие, полуразложившиеся, они практически неуязвимы — зато мельчайшее ранение, нанесенное ими живому человеку, грозит превратить его в зомби. Армия живых мертвецов захватывает страну за страной, континент за континентом. Гибнут, пытаясь предотвратить грядущий Апокалипсис, тысячи военных России, Европы, Азии и США. Земля — на краю катастрофы. И совершенно неизвестно, как бороться с противником, который уже мертв…
Доп. информация: UNRATED версия. Отсутствует около 10 минут перевода

Сэмпл: http://multi-up.com/900119
Качество видео: HDRip (Исх. BDRip 720p)
Формат видео: AVI
Видео: 688x288 (2.39:1), 23.976 fps, XviD build 50 ~711 kbps avg, 0.15 bit/pixel
Аудио: 48 kHz, MPEG Layer 3, 2 ch, ~128.00 kbps avg

MediaInfo

Общее
Полное имя : S:\Фильмы\Война миров Z. 2013. HDRip (AleksSin).avi
Формат : AVI
Формат/Информация : Audio Video Interleave
Размер файла : 746 Мбайт
Продолжительность : 2 ч. 3 м.
Общий поток : 848 Кбит/сек
Программа кодирования : VirtualDubMod 1.5.10.3 | www.virtualdub-fr.org || (build 2550/release)
Библиотека кодирования : VirtualDubMod build 2550/release
Видео
Идентификатор : 0
Формат : MPEG-4 Visual
Профиль формата : Advanced Simple@L5
Параметр BVOP формата : 2
Параметр QPel формата : Нет
Параметр GMC формата : Без точки перехода
Параметр матрицы формата : Default (H.263)
Идентификатор кодека : XVID
Идентификатор кодека/Подсказка : XviD
Продолжительность : 2 ч. 3 м.
Битрейт : 711 Кбит/сек
Ширина : 688 пикс.
Высота : 288 пикс.
Соотношение сторон : 2,40:1
Частота кадров : 23,976 кадр/сек
Цветовое пространство : YUV
Подвыборка цветности : 4:2:0
Битовая глубина : 8 бит
Тип развёртки : Прогрессивная
Метод сжатия : С потерями
Бит/(Пиксели*Кадры) : 0.150
Размер потока : 626 Мбайт (84%)
Библиотека кодирования : XviD 1.2.1 (UTC 2008-12-04)
Аудио
Идентификатор : 1
Формат : MPEG Audio
Версия формата : Version 1
Профиль формата : Layer 3
Идентификатор кодека : 55
Идентификатор кодека/Подсказка : MP3
Продолжительность : 2 ч. 3 м.
Вид битрейта : Постоянный
Битрейт : 128 Кбит/сек
Каналы : 2 канала
Частота : 48,0 КГц
Метод сжатия : С потерями
Размер потока : 113 Мбайт (15%)
Выравнивание : Соединение по промежуткам
Продолжительность промежутка : 42 мс. (1,00 видеокадр)
Время предзагрузки промежутка : 504 ms
Библиотека кодирования : LAME3.99r
Настройки программы : -m s -V 4 -q 2 -lowpass 17 -b 128

Скриншот c названием фильма

Скриншоты

Скачать

Скачать торрент!

Как скачивать? · Что такое торрент? · Рейтинг и ограничения

Сайт не распространяет и не хранит электронные версии произведений, а лишь предоставляет доступ к создаваемому пользователями каталогу ссылок на торрент-файлы, которые содержат только списки хеш-сумм

[Профиль] [ЛС]
Показать сообщения:    
Ответить на тему

Текущее время: Сегодня 02:07

Часовой пояс: GMT + 4



Вы не можете начинать темы
Вы не можете отвечать на сообщения
Вы не можете редактировать свои сообщения
Вы не можете удалять свои сообщения
Вы не можете голосовать в опросах
Вы не можете прикреплять файлы к сообщениям
Вы не можете скачивать файлы