Охотники на ведьм / Hansel & Gretel: Witch Hunters (Томми Виркола / Tommy Wirkola) [2013, США, Германия, ужасы, фэнтези, боевик, BDRip 720p] [UNRATED] VO (Doctor Joker) + Sub Rus,Eng + Original Eng

Ответить на тему
 
Автор Сообщение

user ®

Стаж: 7 лет 7 месяцев

Сообщений: 20008

Пост Пост: #1 от 04-Сен-2013 11:15

[Цитировать]

Охотники на ведьм / Hansel & Gretel: Witch Hunters Страна: США, Германия
Студия: Metro-Goldwyn-Mayer (MGM), Paramount Pictures
Жанр: ужасы, фэнтези, боевик
Год выпуска: 2013
Продолжительность: 01:37:56
Перевод: Одноголосый (закадровый) Doctor_Joker
Cубтитры: русские(Doctor.Joker,voronine)английские
Оригинальная аудиодорожка: английский
Режиссер: Томми Виркола / Tommy Wirkola
В ролях: Джереми Реннер, Джемма Артертон, Фамке Янссен, Зои Белл, Петер Стормаре, Томас Манн, Ингрид Болсай Бердал, Робин Аткин Даунс, Дерек Мирс, Моник Гэндертон
Описание: Едва не погибнув в лапах ужасной ведьмы, Гензель и Гретель стали только сильнее. Одержимые местью, они ведут отчаянную борьбу со злом, даже не подозревая, что их поджидает нечто куда более опасное… собственное прошлое…

Тип релиза: BDRip 720p[DON]
Контейнер: MKV
Видео: AVC,1280x534,6200 kbps,23.976 fps
Аудио 1: Russian: 48 kHz, AC3, 3/2 (L,C,R,l,r) + LFE ch, ~640.00 kbps |Doctor_Joker|
Аудио 2: English: 48 kHz, AC3, 3/2 (L,C,R,l,r) + LFE ch, ~640.00 kbps avg|Original|
Чаптеры:есть

x264 log

x264 [info]: profile High, level 4.1
x264 [info]: frame I:1605 Avg QP:12.12 size:135745
x264 [info]: frame P:40713 Avg QP:13.60 size: 54447
x264 [info]: frame B:98568 Avg QP:14.54 size: 21498
x264 [info]: consecutive B-frames: 6.5% 9.1% 10.4% 33.5% 15.5% 19.0% 6.0%
encoded 140886 frames, 1.96 fps, 6199.44 kb/s

MediaInfo

General
Unique ID : 213977128813290259243709772845592579067 (0xA0FA7EF884138B5DACEBFF93C68F8BFB)
Complete name : D:\Hansel.and.Gretel.Witch.Hunters.2013.720p.DD5.1.x264-Talian-.mkv
Format : Matroska
Format version : Version 2
File size : 5.12 GiB
Duration : 1h 37mn
Overall bit rate : 7 482 Kbps
Movie name : -Talian-
Encoded date : UTC 2013-09-03 14:58:44
Writing application : mkvmerge v5.7.0 ('The Whirlwind') built on Jul 8 2012 20:08:51
Writing library : libebml v1.2.3 + libmatroska v1.3.0
Video
ID : 1
Format : AVC
Format/Info : Advanced Video Codec
Format profile : High@L4.1
Format settings, CABAC : Yes
Format settings, ReFrames : 12 frames
Codec ID : V_MPEG4/ISO/AVC
Duration : 1h 37mn
Bit rate : 6 200 Kbps
Width : 1 280 pixels
Height : 534 pixels
Display aspect ratio : 2.40:1
Frame rate : 23.976 fps
Color space : YUV
Chroma subsampling : 4:2:0
Bit depth : 8 bits
Scan type : Progressive
Bits/(Pixel*Frame) : 0.378
Stream size : 4.14 GiB (81%)
Title : DON
Writing library : x264 core 132 r2310 76a5c3a
Encoding settings : cabac=1 / ref=12 / deblock=1:-3:-3 / analyse=0x3:0x133 / me=tesa / subme=8 / psy=1 / psy_rd=1.00:0.05 / mixed_ref=1 / me_range=32 / chroma_me=1 / trellis=2 / 8x8dct=1 / cqm=0 / deadzone=21,11 / fast_pskip=0 / chroma_qp_offset=-3 / threads=12 / lookahead_threads=3 / sliced_threads=0 / nr=0 / decimate=0 / interlaced=0 / bluray_compat=0 / constrained_intra=0 / bframes=6 / b_pyramid=2 / b_adapt=2 / b_bias=0 / direct=3 / weightb=1 / open_gop=0 / weightp=2 / keyint=250 / keyint_min=23 / scenecut=40 / intra_refresh=0 / rc_lookahead=60 / rc=2pass / mbtree=0 / bitrate=6200 / ratetol=1.0 / qcomp=0.60 / qpmin=0 / qpmax=50 / qpstep=4 / cplxblur=20.0 / qblur=0.5 / vbv_maxrate=50000 / vbv_bufsize=50000 / nal_hrd=none / ip_ratio=1.20 / pb_ratio=1.20 / aq=1:0.80
Language : English
Default : No
Forced : No
Audio #1
ID : 2
Format : AC-3
Format/Info : Audio Coding 3
Mode extension : CM (complete main)
Format settings, Endianness : Big
Codec ID : A_AC3
Duration : 1h 37mn
Bit rate mode : Constant
Bit rate : 640 Kbps
Channel(s) : 6 channels
Channel positions : Front: L C R, Side: L R, LFE
Sampling rate : 48.0 KHz
Bit depth : 16 bits
Compression mode : Lossy
Stream size : 448 MiB (9%)
Title : VO-Doctor_Joker
Language : Russian
Default : Yes
Forced : No
Audio #2
ID : 3
Format : AC-3
Format/Info : Audio Coding 3
Mode extension : CM (complete main)
Format settings, Endianness : Big
Codec ID : A_AC3
Duration : 1h 37mn
Bit rate mode : Constant
Bit rate : 640 Kbps
Channel(s) : 6 channels
Channel positions : Front: L C R, Side: L R, LFE
Sampling rate : 48.0 KHz
Bit depth : 16 bits
Compression mode : Lossy
Stream size : 448 MiB (9%)
Title : Original
Language : English
Default : No
Forced : No
Text #1
ID : 4
Format : UTF-8
Codec ID : S_TEXT/UTF8
Codec ID/Info : UTF-8 Plain Text
Title : Sub-Doctor_Joker
Language : Russian
Default : No
Forced : No
Text #2
ID : 5
Format : UTF-8
Codec ID : S_TEXT/UTF8
Codec ID/Info : UTF-8 Plain Text
Title : Sub-voronine
Language : Russian
Default : No
Forced : No
Text #3
ID : 6
Format : UTF-8
Codec ID : S_TEXT/UTF8
Codec ID/Info : UTF-8 Plain Text
Title : Sub
Language : English
Default : No
Forced : No
Menu
00:00:00.000 : en:00:00:00.000
00:09:02.333 : en:00:09:02.333
00:16:12.805 : en:00:16:12.805
00:26:24.958 : en:00:26:24.958
00:35:18.032 : en:00:35:18.032
00:46:34.750 : en:00:46:34.750
00:57:17.725 : en:00:57:17.725
01:04:26.279 : en:01:04:26.279
01:09:44.388 : en:01:09:44.388
01:14:10.571 : en:01:14:10.571
01:22:05.003 : en:01:22:05.003
01:29:02.253 : en:01:29:02.253

Скриншоты

Source vs Encode







Скачать

Скачать торрент!

Как скачивать? · Что такое торрент? · Рейтинг и ограничения

Сайт не распространяет и не хранит электронные версии произведений, а лишь предоставляет доступ к создаваемому пользователями каталогу ссылок на торрент-файлы, которые содержат только списки хеш-сумм

[Профиль] [ЛС]
Показать сообщения:    
Ответить на тему

Текущее время: Сегодня 20:20

Часовой пояс: GMT + 4



Вы не можете начинать темы
Вы не можете отвечать на сообщения
Вы не можете редактировать свои сообщения
Вы не можете удалять свои сообщения
Вы не можете голосовать в опросах
Вы не можете прикреплять файлы к сообщениям
Вы не можете скачивать файлы