Война миров Z / World War Z (Марк Форстер / Marc Forster) [2013, США, Мальта, ужасы, фантастика, боевик, триллер, драма, HDRip] [Расширенная версия] Dub (Звук с TS)

Ответить на тему
 
Автор Сообщение

user ®

Стаж: 7 лет 7 месяцев

Сообщений: 20008

Пост Пост: #1 от 04-Сен-2013 11:15

[Цитировать]

Война миров Z / World War Z / [Расширенная версия]
Страна: США, Мальта
Жанр: ужасы, фантастика, боевик, триллер, драма
Год выпуска: 2013
Продолжительность: 02:03:03
Перевод: Профессиональный (дублированный) [Звук с TS]
Cубтитры: нет
Режиссер: Марк Форстер/Marc Forster
В ролях: Брэд Питт, Эрик Уэст, Мэттью Фокс, Дэвид Морс, Джеймс Бэдж Дэйл, Мирей Инос, Дэвид Эндрюс, Мишель Хайсмэн, Джулиан Сигер, Элайес Габел
Описание: Нападение живых мертвецов — не шутка и не сказка. Зомби в одночасье стали реальностью — и реальность эта грозит гибелью всему человечеству. Гниющие, полуразложившиеся, они практически неуязвимы — зато мельчайшее ранение, нанесенное ими живому человеку, грозит превратить его в зомби. Армия живых мертвецов захватывает страну за страной, континент за континентом. Гибнут, пытаясь предотвратить грядущий Апокалипсис, тысячи военных России, Европы, Азии и США. Земля — на краю катастрофы. И совершенно неизвестно, как бороться с противником, который уже мертв…
Доп. информация: UNRATED версия. Отсутствует около 10 минут перевода
Сэмпл: http://sendfile.su/862264
Качество видео: HDRip
Формат видео: AVI
Видео: 720x304 (2.35:1), 23.976 fps, XviD build 50 ~1 862 kbps avg, 0.355 bit/pixel
Аудио: Russian / English: 48 kHz, MPEG Layer 3, 2 ch, ~128 kbps avg

MediaInfo

General
Complete name : D:\Фильмы\Vojna.mirov.Z.2013.Dt.HDRip.UNRATED.2100MB.avi
Format : AVI
Format/Info : Audio Video Interleave
File size : 2.05 GiB
Duration : 2h 3mn
Overall bit rate : 2 388 Kbps
Writing application : VirtualDubMod 1.5.10.2 (build 2540/release)
Writing library : VirtualDubMod build 2540/release
Video
ID : 0
Format : MPEG-4 Visual
Format profile : Advanced Simple@L5
Format settings, BVOP : Yes
Format settings, QPel : No
Format settings, GMC : No warppoints
Format settings, Matrix : Default (MPEG)
Codec ID : XVID
Codec ID/Hint : XviD
Duration : 2h 3mn
Bit rate : 1 862 Kbps
Width : 720 pixels
Height : 304 pixels
Display aspect ratio : 2.35:1
Frame rate : 23.976 fps
Color space : YUV
Chroma subsampling : 4:2:0
Bit depth : 8 bits
Scan type : Progressive
Bits/(Pixel*Frame) : 0.355
Stream size : 1.60 GiB (78%)
Writing library : XviD 1.2.1 (UTC 2008-12-04)
Audio #1
ID : 1
Format : MPEG Audio
Format version : Version 1
Format profile : Layer 3
Mode : Joint stereo
Codec ID : 55
Codec ID/Hint : MP3
Duration : 2h 3mn
Bit rate mode : Constant
Bit rate : 128 Kbps
Channel(s) : 2 channels
Sampling rate : 48.0 KHz
Stream size : 113 MiB (5%)
Alignment : Aligned on interleaves
Interleave, duration : 42 ms (1.00 video frame)
Interleave, preload duration : 504 ms
Audio #2
ID : 2
Format : AC-3
Format/Info : Audio Coding 3
Mode extension : CM (complete main)
Codec ID : 2000
Duration : 2h 3mn
Bit rate mode : Constant
Bit rate : 384 Kbps
Channel(s) : 6 channels
Channel positions : Front: L C R, Side: L R, LFE
Sampling rate : 48.0 KHz
Bit depth : 16 bits
Stream size : 338 MiB (16%)
Alignment : Split accross interleaves
Interleave, duration : 42 ms (1.00 video frame)
Interleave, preload duration : 500 ms

Скриншот c названием фильма

Скриншоты

Скачать

Скачать торрент!

Как скачивать? · Что такое торрент? · Рейтинг и ограничения

Сайт не распространяет и не хранит электронные версии произведений, а лишь предоставляет доступ к создаваемому пользователями каталогу ссылок на торрент-файлы, которые содержат только списки хеш-сумм

[Профиль] [ЛС]
Показать сообщения:    
Ответить на тему

Текущее время: Сегодня 00:26

Часовой пояс: GMT + 4



Вы не можете начинать темы
Вы не можете отвечать на сообщения
Вы не можете редактировать свои сообщения
Вы не можете удалять свои сообщения
Вы не можете голосовать в опросах
Вы не можете прикреплять файлы к сообщениям
Вы не можете скачивать файлы