Прекрасные создания / Beautiful Creatures (Ричард ЛаГравенес / Richard LaGravenese) [2013, США, фэнтези, драма, мелодрама, HDRip, Профессиональный (полное дублирование) [Чистый звук]

Ответить на тему
 
Автор Сообщение

LORN-V ®

Пол:

Стаж: 4 года 6 месяцев

Сообщений: 1185

Откуда: Munchen

Пост Пост: #1 от 03-Сен-2013 18:28

[Цитировать]

Прекрасные создания / Beautiful Creatures-«Раскроются тёмные тайны» -Основная информация:-Год выпуска:2013
Страна:США
Жанр:фэнтези, драма, мелодрама
Продолжительность: 02:03:44
Перевод:Профессиональный (полное дублирование) [Чистый звук]
Субтитры: Нет
Режиссер:Ричард ЛаГравенес / Richard LaGravenese
Сценарий: Ричард ЛаГравенес / Richard LaGravenese, Ками Гарсиа / Kami Garcia, Маргарет Стол / Margaret Stohl
Продюсер: Бродерик Джонсон / Broderick Johnson, Эндрю А. Косов / Andrew A. Kosove, Молли Смит / Molly Smith, Эрвин Стофф / Erwin Stoff, Брэд Аренсмен / Brad Arensman-В ролях: Олден Эйренрайк (Ethan Wate), Элис Энглерт (Lena Duchannes), Джереми Айронс (Macon Ravenwood), Виола Дэвис (Amma), Эмми Россам (Ridley Duchannes), Томас Манн (Link), Эмма Томпсон (Mrs. Lincoln / Sarafine), Айлин Эткинс (Gramma), Марго Мартиндейл (Aunt Del), Зои Дойч (Emily Asher), Тиффани Бун (Savannah Snow), Рэйчел Броснахэн (Genevieve Duchannes)-Описание:-Лена Дюкейн отличается от всех, кого когда-либо видел маленький южный город Гатлин, она борется с собой, пытаясь усмирить свою силу и проклятие, веками преследовавшее ее семью. Но даже в разросшихся садах, в мрачных болотах и на разрушенных могильниках позабытого Юга секрет не будет жить вечно.
Итана Уэйта, считающего дни до своего бегства из Гатлина, преследуют сны о прекрасной девушке, которую он никогда не встречал. Когда Лена приезжает жить в дом на самой старой и самой жуткой из всех плантаций города, Итан безоговорочно влюбляется в нее и целенаправленно старается раскрыть секрет их удивительной связи.-kinopoisk.ru: 5.884 (7725)
imdb.com: 6.00 (30 852)
MPAA: PG-13 - Детям до 13 лет просмотр не желателен
-Доп. информация:-Качество:HDRip
Формат:AVI
Видео кодек: XviD
Аудио кодек:MP3
Видео: XviD, 720x304 (2.35:1), 1380 kbps, 23,976 fps,
Аудио: MP3 / 2.0 / 48 kHz / 192 kbps /

MI

General
Complete name : D:ТорентыPrekrasnye.sozdanija.2013.D.HDRip.1400MB.avi
Format : AVI
Format/Info : Audio Video Interleave
File size : 1.37 GiB
Duration : 2h 3mn
Overall bit rate : 1 581 Kbps
Writing application : VirtualDubMod 1.5.10.2 (build 2540/release)
Writing library : VirtualDubMod build 2540/release
Video
ID : 0
Format : MPEG-4 Visual
Format profile : Advanced Simple@L5
Format settings, BVOP : 2
Format settings, QPel : No
Format settings, GMC : No warppoints
Format settings, Matrix : Default (MPEG)
Codec ID : XVID
Codec ID/Hint : XviD
Duration : 2h 3mn
Bit rate : 1380 Kbps
Width : 720 pixels
Height : 304 pixels
Display aspect ratio : 2.35:1
Frame rate : 23.976 fps
Color space : YUV
Chroma subsampling : 4:2:0
Bit depth : 8 bits
Scan type : Progressive
Compression mode : Lossy
Bits/(Pixel*Frame) : 0.251
Stream size : 1.14 GiB (83%)
Writing library : XviD 1.2.1 (UTC 2008-12-04)
Audio
ID : 1
Format : MPEG Audio
Format version : Version 1
Format profile : Layer 3
Mode : Joint stereo
Codec ID : 55
Codec ID/Hint : MP3
Duration : 2h 3mn
Bit rate mode : Constant
Bit rate : 192 Kbps
Channel(s) : 2 channels
Sampling rate : 48.0 KHz
Compression mode : Lossy
Stream size : 170 MiB (12%)
Alignment : Aligned on interleaves

Знаете ли Вы, что...

Фильм снят по мотивам романа Ками Гарсиа и Маргарет Стол «Прекрасные создания» (Beautiful Creatures, 2009).
Стихи на стенах и потолке в комнате Лены взяты из творчества четырех поэтов: Уильяма Блейка, Альфреда Лорда Теннисона, Эдны Сент-Винсент Миллей и Руми (Rumi).
Режиссер Ричард ЛаГравенес хотел как можно меньше использовать зеленый фон. И потому в сцене праздничного ужина Кастера съемочная площадка была сделана таким образом, что стол вращался вместе с актерами на привинченных стульях. Пол под столом тоже вращался, но в противоположном направлении и с Элис Энглерт и Эмми Россам, которые были привязаны к платформе. Вся эта площадка была построена на гидравлике, чтобы она могла качаться. Скорость вращения регулировалась от 1 до 10, актеров вращали на восьмой скорости. В общей сложности ушло три дня, чтобы снять эту сцену. Страдающий от морской болезни Ричард ЛаГравенес принимал Dramamine во время съемок этой сцены.
Кастинг фильма начался в конце 2011 года. Вскоре было объявлено, что главных героев - Итана Уэйта и Лену Дюкейн - сыграют Джек О’Коннелл и Элис Энглерт. О’Коннелл позже выбыл из фильма из-за конфликта с расписанием съемок, и роль Итана Уэйта досталась Олдену Эйренрайху.
Съемки в Луизиане приходилось приостанавливать в связи с предупреждением о торнадо.
В сцене со снегом песня, которая играет на фоне, - это «Needle and Thread» («Иголка и нить»). Она была придумана и записана актрисой Элис Энглерт в ее номере отеля в Новом Орлеане во время препродакшна. Песня понравилась режиссеру Ричарду ЛаГравенесу, и он решил использовать ее в фильме.
Неудачное прочтение Итаном стихотворения Чарльза Буковски на самом деле появилось из-за трудностей с запоминанием порядка строк у Олдена Эйренрайка, что рассмешило Элис Энглерт. Он ошибся только в одном дубле, но режиссеру Ричарду ЛаГравенесу понравилась идея с Ромео, который пытается произвести впечатление на Джульетту и так проваливается с поэзией.
Оригинальный саундтрек к фильму был сочинен группой Thenewno2 (Дхани Харрисон, Пол Хикс, Джонатан Садофф). Группа начала создание саундтрека в студии Friar Park в городе Хенли-он-Темза. Гитарное соло для любовной темы Дхани заимствовал у своего отца, Джорджа Харрисона, из песни «While My Guitar Gently Weeps». В итоге саундтрек был записан на Abbey Road в Studio 2.
Роль Аммы на самом деле является комбинацией двух персонажей из книги: Амма - экономка-пророк, Мариан - библиотекарь и лучший друг покойной матери Итана. Сценарист и режиссер Ричард ЛаГравенес скомбинировал две эти роли в надежде привлечь внимание актрисы Виолы Дэвис. Она была единственной, кого он видел в этой роли.
еще 6 фактов
--

Скриншоты:

Скачать

Скачать торрент!

Как скачивать? · Что такое торрент? · Рейтинг и ограничения

Сайт не распространяет и не хранит электронные версии произведений, а лишь предоставляет доступ к создаваемому пользователями каталогу ссылок на торрент-файлы, которые содержат только списки хеш-сумм


_________________
[Профиль] [ЛС]
Показать сообщения:    
Ответить на тему

Текущее время: Сегодня 12:11

Часовой пояс: GMT + 4



Вы не можете начинать темы
Вы не можете отвечать на сообщения
Вы не можете редактировать свои сообщения
Вы не можете удалять свои сообщения
Вы не можете голосовать в опросах
Вы не можете прикреплять файлы к сообщениям
Вы не можете скачивать файлы