Зажигание / Combustion (Даниэль Кальпарсоро / Daniel Calparsoro) [2013, Испания, мелодрама, приключения, боевик, BDRip] Dub (Чистый Звук)

Ответить на тему
 
Автор Сообщение

user ®

Стаж: 7 лет 7 месяцев

Сообщений: 20008

Пост Пост: #1 от 02-Сен-2013 11:55

[Цитировать]

Зажигание / Combustion--Страна: Испания
Жанр: мелодрама, приключения, боевик
Год выпуска: 2013
Продолжительность: 01:43:36--Перевод: Профессиональный (дублированный) Чистый Звук
Cубтитры: нет
Режиссер: Даниэль Кальпарсоро / Daniel Calparsoro
В ролях: Алекс Гонсалес, Адриана Угарте, Альберто Амман, Мария Кастро, Луис Саера, Марта Ниэто, Кристиан Мулас, Хуан Пабло Шук, Мария Каласса--Описание: Навас и Ари — идеальная пара и профессиональные мошенники. Она — роковая красотка, соблазняющая богатых мужчин, а он — жестокий налетчик, который их грабит. Все меняется, когда Навас и Ари выбирают себе новую жертву — богатенького красавчика Микеля, в которого Ари влюбляется без памяти…--Сэмпл: http://multi-up.com/899538--Качество видео: BDRip
Формат видео: AVI
Видео: XviD, NTSC 24.000, 720х304, 1812 кбит/с
Аудио: AC3, 2ch (L,R), 192 кбит/с--

MediaInfo

General
Complete name : D:\Zazhiganie.2013.D.HDRip.avi
Format : AVI
Format/Info : Audio Video Interleave
File size : 1.46 GiB
Duration : 1h 43mn
Overall bit rate : 2 012 Kbps
Writing application : VirtualDubMod 1.5.10.2 (build 2540/release)
Writing library : VirtualDubMod build 2540/release
Video
ID : 0
Format : MPEG-4 Visual
Format profile : Advanced Simple@L5
Format settings, BVOP : 2
Format settings, QPel : No
Format settings, GMC : No warppoints
Format settings, Matrix : Custom
Codec ID : XVID
Codec ID/Hint : XviD
Duration : 1h 43mn
Bit rate : 1 812 Kbps
Width : 720 pixels
Height : 304 pixels
Display aspect ratio : 2.35:1
Frame rate : 24.000 fps
Color space : YUV
Chroma subsampling : 4:2:0
Bit depth : 8 bits
Scan type : Progressive
Compression mode : Lossy
Bits/(Pixel*Frame) : 0.345
Stream size : 1.31 GiB (90%)
Writing library : XviD 1.2.1 (UTC 2008-12-04)
Audio
ID : 1
Format : AC-3
Format/Info : Audio Coding 3
Mode extension : CM (complete main)
Codec ID : 2000
Duration : 1h 43mn
Bit rate mode : Constant
Bit rate : 192 Kbps
Channel(s) : 2 channels
Channel positions : Front: L R
Sampling rate : 44.1 KHz
Bit depth : 16 bits
Compression mode : Lossy
Delay relative to video : 247ms
Stream size : 142 MiB (10%)
Alignment : Split accross interleaves
Interleave, duration : 42 ms (1.00 video frame)
Interleave, preload duration : 500 ms

Скриншот c названием фильма

Скриншоты

Скачать

Скачать торрент!

Как скачивать? · Что такое торрент? · Рейтинг и ограничения

Сайт не распространяет и не хранит электронные версии произведений, а лишь предоставляет доступ к создаваемому пользователями каталогу ссылок на торрент-файлы, которые содержат только списки хеш-сумм

[Профиль] [ЛС]
Показать сообщения:    
Ответить на тему

Текущее время: Сегодня 05:10

Часовой пояс: GMT + 4



Вы не можете начинать темы
Вы не можете отвечать на сообщения
Вы не можете редактировать свои сообщения
Вы не можете удалять свои сообщения
Вы не можете голосовать в опросах
Вы не можете прикреплять файлы к сообщениям
Вы не можете скачивать файлы