Перестрелка в Вадале / Shootout at Wadala (Санджай Гупта / Sanjay Gupta) [2013, Индия, Боевик, криминал, HDRip] MVO

Ответить на тему
 
Автор Сообщение

user ®

Стаж: 12 лет

Сообщений: 15124

Пост Пост: #1 от 01-Сен-2013 17:05

[Цитировать]

Перестрелка в Вадале / Shootout at Wadala
Страна: Индия
Жанр: Боевик, криминал
Год выпуска: 2013
Продолжительность: 02:27:51
Перевод: Любительский (многоголосый закадровый) IndianCinemaGroup
Cубтитры: нет
Режиссер: Санджай Гупта / Sanjay Gupta
В ролях: Джон Абрахам, Анил Капур, Тусшар Капур, Кангана Ранаут, Сону Суд, Манодж Баджпаи, Джеки Шрофф, Ронит Рой, Махеш Манджрекар, Сиддхант Капур, Ранджит, Санджив Чадда, Раджу Кхер, Ариф Закария, Четан Хансрадж, Каран Патель, Винит Шарма, Санни Леоне, Приянка Чопра, София Чаудхари
Описание: 1 ноября 1982 года отряд полиции Мумбаи устроил перестрелку с гангстером Манохаром Сурвеем в Технологическом институте Видьяланкара в Вадале, Мумбаи. Это была первая зарегистрированная перестрелка полиции Мумбаи, которая вошла в историю, как «Перестрелка в Вадале».
Доп. информация: Роли озвучивали: Александр Нелюбин, Александр Галушко, Андрей Хомяков и Марина Комчарукова
Перевод на русский язык: Rummata
Сэмпл: http://multi-up.com/899253
Качество видео: HDRip (Исх. BDRip (720p))
Формат видео: AVI
Видео: XviD build 50, 688x288 (2.39:1), 24.000 fps, 1277 kbps avg
Аудио: MPEG Layer 3, 48 kHz, 2/0 (L,R) ch, 128.00 kbps avg

MediaInfo

General
Complete name : D:\Perestrelka.v.Vadale.2013.XviD.HDRip-Dego.avi
Format : AVI
Format/Info : Audio Video Interleave
File size : 1.46 GiB
Duration : 2h 27mn
Overall bit rate : 1 415 Kbps
Writing application : VirtualDubMod 1.5.10.2 (build 2540/release)
Writing library : VirtualDub build 30009/release
Video
ID : 0
Format : MPEG-4 Visual
Format profile : AdvancedSimple@L5
Format settings, BVOP : Yes
Format settings, QPel : No
Format settings, GMC : No warppoints
Format settings, Matrix : Default (MPEG)
Codec ID : XVID
Codec ID/Hint : XviD
Duration : 2h 27mn
Bit rate : 1 278 Kbps
Width : 688 pixels
Height : 288 pixels
Display aspect ratio : 2.35
Frame rate : 24.000 fps
Resolution : 24 bits
Colorimetry : 4:2:0
Scan type : Progressive
Bits/(Pixel*Frame) : 0.269
Stream size : 1.32 GiB (90%)
Writing library : XviD 1.2.1 (UTC 2008-12-04)
Audio
ID : 1
Format : MPEG Audio
Format version : Version 1
Format profile : Layer 3
Codec ID : 55
Codec ID/Hint : MP3
Duration : 2h 27mn
Bit rate mode : Constant
Bit rate : 128 Kbps
Channel(s) : 2 channels
Sampling rate : 48.0 KHz
Resolution : 16 bits
Stream size : 135 MiB (9%)
Alignment : Aligned on interleaves
Interleave, duration : 42 ms (1.00 video frame)
Interleave, preload duration : 504 ms
Writing library : LAME3.98r
Encoding settings : -m s -V 4 -q 2 -lowpass 17 -b 128-m s

Скриншот c названием фильма

Скриншоты

Скачать

Скачать торрент! Перестрелка в Вадале / Shootout at Wadala (Санджай Гупта / Sanjay Gupta) [2013, Индия, Боевик, криминал, HDRip] MVO

Как скачивать? · Что такое торрент? · Рейтинг и ограничения

Сайт не распространяет и не хранит электронные версии произведений, а лишь предоставляет доступ к создаваемому пользователями каталогу ссылок на торрент-файлы, которые содержат только списки хеш-сумм

[Профиль] [ЛС]
Показать сообщения:    
Ответить на тему

Текущее время: Сегодня 21:42

Часовой пояс: GMT + 4



Вы не можете начинать темы
Вы не можете отвечать на сообщения
Вы не можете редактировать свои сообщения
Вы не можете удалять свои сообщения
Вы не можете голосовать в опросах
Вы не можете прикреплять файлы к сообщениям
Вы не можете скачивать файлы