Майло / Bad Milo! (Джейкоб Вон / Jacob Vaughan) [2013, США, ужасы, комедия, фэнтези, WEB-DL 720p] VO (zelesk) + Sub Eng + Original Eng

Ответить на тему
 
Автор Сообщение

user ®

Стаж: 7 лет 7 месяцев

Сообщений: 20008

Пост Пост: #1 от 01-Сен-2013 01:20

[Цитировать]

Майло / Bad Milo!
Страна: США
Студия: Duplass Brothers Productions, Floren Shieh Productions, New Artists Alliance
Жанр: ужасы, комедия, фэнтези
Год выпуска: 2013
Продолжительность: 01:24:07
Перевод: Одноголосый закадровый zelesk
Cубтитры: английские
Оригинальная аудиодорожка: английский
Режиссер: Джейкоб Вон / Jacob Vaughan
В ролях: Патрик Варбертон, Петер Стормаре, Джиллиан Джейкобс, Стивен Рут, Кен Марино, Кумэйл Нанджиани, Тоби Хасс, Мэри Кэй Плэйс, Джонатан Даниэль Браун, Тиша Френч
Описание: Кен - обычный молодой человек, работающий обычным офисным клерком. Он начинает испытывать боли в желудке, когда находится в стрессовом состоянии. Положение ухудшается каждый раз, когда он пытается подавить стресс, сдерживая чувства внутри. Кульминация наступает, когда стресс вдруг превращается в маленького монстра, который выходит из тела Кена через задний проход и мстит всему тому, что заставлет Кена нервничать. Но вскоре монстр начинает угрожать тому единственному человеку, которого любит Кен - его жене...
Сэмпл: http://multi-up.com/899107
Тип релиза: WEB-DL 720p
Контейнер: MKV
Видео: Advanced Video Codec, 1280x688, V_MPEG4/ISO/AVC, 1.85:1, 3976 kbps, 23.976 fps
Аудио: Русский, AC-3, 2/0 (Front: L,R) ch, 48.0 KHz, ~192.00 kbps - zelesk
Аудио 2: English, AC-3, 5.1 (Front: L,C,R Side: L,R,LFE), 48.0 KHz, ~384.00 kbps
Формат субтитров: softsub (SRT)

MediaInfo

Bad.Milo.2013.720p.WEB-DL.DD5.1.h.264-fiend.mkv
General
Unique ID : 255024815366803957455164140879893869107 (0xBFDBFE2B43E7AEC4AE140657E90DB233)
Complete name : Bad.Milo.2013.720p.WEB-DL.DD5.1.h.264-fiend.mkv
Format : Matroska
Format version : Version 4 / Version 2
File size : 2.73 GiB
Duration : 1h 24mn
Overall bit rate : 4 645 Kbps
Encoded date : UTC 2013-08-31 19:40:58
Writing application : mkvmerge v6.0.0 ('Coming Up For Air') built on Jan 20 2013 09:52:00
Writing library : libebml v1.3.0 + libmatroska v1.4.0
Video #1
ID : 1
Format : AVC
Format/Info : Advanced Video Codec
Format profile : High@L3.1
Format settings, CABAC : No
Format settings, ReFrames : 2 frames
Codec ID : V_MPEG4/ISO/AVC
Duration : 1h 24mn
Bit rate : 3 976 Kbps
Width : 1 280 pixels
Height : 688 pixels
Display aspect ratio : 1.85:1
Frame rate mode : Constant
Frame rate : 23.976 fps
Color space : YUV
Chroma subsampling : 4:2:0
Bit depth : 8 bits
Scan type : Progressive
Bits/(Pixel*Frame) : 0.188
Stream size : 2.34 GiB (86%)
Language : English
Default : Yes
Forced : No
Color primaries : BT.709
Transfer characteristics : BT.709
Matrix coefficients : BT.709
Audio #2
ID : 2
Format : AC-3
Format/Info : Audio Coding 3
Mode extension : CM (complete main)
Format settings, Endianness : Big
Codec ID : A_AC3
Duration : 1h 24mn
Bit rate mode : Constant
Bit rate : 192 Kbps
Channel(s) : 2 channels
Channel positions : Front: L R
Sampling rate : 48.0 KHz
Bit depth : 16 bits
Compression mode : Lossy
Stream size : 116 MiB (4%)
Language : Russian
Default : No
Forced : Yes
Audio #3
ID : 3
Format : AC-3
Format/Info : Audio Coding 3
Mode extension : CM (complete main)
Format settings, Endianness : Big
Codec ID : A_AC3
Duration : 1h 24mn
Bit rate mode : Constant
Bit rate : 384 Kbps
Channel(s) : 6 channels
Channel positions : Front: L C R, Side: L R, LFE
Sampling rate : 48.0 KHz
Bit depth : 16 bits
Compression mode : Lossy
Stream size : 231 MiB (8%)
Language : English
Default : No
Forced : No
Text #4
ID : 4
Format : UTF-8
Codec ID : S_TEXT/UTF8
Codec ID/Info : UTF-8 Plain Text
Language : English
Default : No
Forced : No
Menu
00:00:00.000 : en:1
00:05:24.000 : en:2
00:10:33.000 : en:3
00:14:41.000 : en:4
00:18:57.000 : en:5
00:23:38.000 : en:6
00:28:49.000 : en:7
00:34:36.000 : en:8
00:39:06.000 : en:9
00:45:16.000 : en:10
00:51:00.000 : en:11
00:55:27.000 : en:12
01:01:14.000 : en:13
01:05:39.000 : en:14
01:09:34.000 : en:15
01:18:02.000 : en:16

Скриншоты

Скачать

Скачать торрент!

Как скачивать? · Что такое торрент? · Рейтинг и ограничения

Сайт не распространяет и не хранит электронные версии произведений, а лишь предоставляет доступ к создаваемому пользователями каталогу ссылок на торрент-файлы, которые содержат только списки хеш-сумм

[Профиль] [ЛС]
Показать сообщения:    
Ответить на тему

Текущее время: Сегодня 18:10

Часовой пояс: GMT + 4



Вы не можете начинать темы
Вы не можете отвечать на сообщения
Вы не можете редактировать свои сообщения
Вы не можете удалять свои сообщения
Вы не можете голосовать в опросах
Вы не можете прикреплять файлы к сообщениям
Вы не можете скачивать файлы