Гуни-Гуни / Guni-guni (Тара Илленбергер / Tara Illenberger) [2012, Филиппины, ужасы, DVDRip] VO + Original Phi

Ответить на тему
 
Автор Сообщение

user ®

Стаж: 11 лет

Сообщений: 15151

Пост Пост: #1 от 31-Авг-2013 22:10

[Цитировать]

Гуни-Гуни / Guni-guni
Страна: Филиппины
Жанр: ужасы
Год выпуска: 2012
Продолжительность: 01:45:24
Перевод: Любительский (двухголосый закадровый) [DeadSno & den904]
Cубтитры: нет
Оригинальная аудиодорожка: филиппинский-Режиссер: Тара Илленбергер / Tara Illenberger
В ролях: Лови, Императрица Шук, Винс Салданья, Джина Алайя, Хайме Фабрегас, Джулия Кларэте, Джеймс Бланко, Нил Райан Сесе, Джеральд Песиган, Риа Гарсия-Описание: Студентка медицинского факультета, Мэлин, уходит из родного дома и снимает комнату в пансионате с очень странными жильцами, у каждого из которых есть своя страшная тайна, как и у нее самой ...-Доп. информация: перевод на русский язык [DeadSno]
премьера (мир) 22 августа 2012

-Качество видео: DVDRip
Формат видео: AVI
Видео: DivX, ~1504 kb/s, 656х352, 23.9 fps
Аудио: MP3, 192 kb/s (2 ch), 48,0 KHz Ru
Аудио#: MP3, 128 kb/s (2 ch), 44,1 KHz Ph

MediaInfo

Общее
Полное имя : D:\AVI\Guniguni.2012.DVDRip.avi
Формат : AVI
Формат/Информация : Audio Video Interleave
Размер файла : 1,35 Гбайт
Продолжительность : 1 ч. 45 м.
Общий поток : 1839 Кбит/сек
Программа кодирования : VirtualDubMod 1.5.10.2 (build 2540/release)
Библиотека кодирования : VirtualDubMod build 2540/release
Видео
Идентификатор : 0
Формат : MPEG-4 Visual
Параметр BVOP формата : Нет
Параметр QPel формата : Нет
Параметр GMC формата : Без точки перехода
Параметр матрицы формата : Default (H.263)
Идентификатор кодека : DX50
Идентификатор кодека/Подсказка : DivX 5
Продолжительность : 1 ч. 45 м.
Битрейт : 1505 Кбит/сек
Ширина : 720 пикселей
Высота : 400 пикселей
Соотношение сторон : 16:9
Частота кадров : 23,976 кадра/сек
Цветовое пространство : YUV
Субдискретизация насыщенности : 4:2:0
Битовая глубина : 8 бит
Тип развёртки : Прогрессивная
Метод сжатия : С потерями
Бит/(Пиксели*Кадры) : 0.218
Размер потока : 1,11 Гбайт (82%)
Библиотека кодирования : DivX 6.6.1.4
Аудио #1
Идентификатор : 1
Формат : MPEG Audio
Версия формата : Version 1
Профиль формата : Layer 3
Режим : Joint stereo
Расширение режима : MS Stereo
Идентификатор кодека : 55
Идентификатор кодека/Подсказка : MP3
Продолжительность : 1 ч. 45 м.
Вид битрейта : Постоянный
Битрейт : 192 Кбит/сек
Каналы : 2 канала
Частота : 48,0 КГц
Метод сжатия : С потерями
Размер потока : 145 Мбайт (10%)
Выравнивание : Разделение по промежуткам
Продолжительность промежутка : 42 мс. (1,00 видеокадр)
Время предзагрузки промежутка : 500 мс.
Библиотека кодирования : LAME3.96
Аудио #2
Идентификатор : 2
Формат : MPEG Audio
Идентификатор кодека : 55
Идентификатор кодека/Подсказка : MP3
Продолжительность : 1 ч. 45 м.
Битрейт : 128 Кбит/сек
Каналы : 2 канала
Частота : 44,1 КГц
Метод сжатия : С потерями
Размер потока : 96,5 Мбайт (7%)
Выравнивание : Разделение по промежуткам
Продолжительность промежутка : 42 мс. (1,00 видеокадр)
Время предзагрузки промежутка : 500 мс.

Скриншоты

Скачать

Скачать торрент! Гуни-Гуни / Guni-guni (Тара Илленбергер / Tara Illenberger) [2012, Филиппины, ужасы, DVDRip] VO + Original Phi

Как скачивать? · Что такое торрент? · Рейтинг и ограничения

Сайт не распространяет и не хранит электронные версии произведений, а лишь предоставляет доступ к создаваемому пользователями каталогу ссылок на торрент-файлы, которые содержат только списки хеш-сумм

[Профиль] [ЛС]
Показать сообщения:    
Ответить на тему

Текущее время: Сегодня 19:29

Часовой пояс: GMT + 4



Вы не можете начинать темы
Вы не можете отвечать на сообщения
Вы не можете редактировать свои сообщения
Вы не можете удалять свои сообщения
Вы не можете голосовать в опросах
Вы не можете прикреплять файлы к сообщениям
Вы не можете скачивать файлы