Завоевание Земли / Conquest of the Earth (Бэрри Крэйн / Barry Crane, Сидни Хайерс / Sidney Hayers, Зигмунд Неуфелд / Sigmund Neufeld) [1981, США, фантастика, HDTVRip 1080p] AVO (Иванов)

Ответить на тему
 
Автор Сообщение

user ®

Стаж: 7 лет 7 месяцев

Сообщений: 20008

Пост Пост: #1 от 31-Авг-2013 19:00

[Цитировать]

Завоевание Земли / Conquest of the Earth
Страна: США
Студия: Universal
Жанр: фантастика
Год выпуска: 1981
Продолжительность: 01:34:33
Перевод: Авторский (одноголосый закадровый) Иванов
Cубтитры: нет
Оригинальная аудиодорожка: английский
Режиссер: Бэрри Крэйн / Barry Crane , Сидни Хайерс / Sidney Hayers , Зигмунд Неуфелд / Sigmund Neufeld
В ролях: Кент МакКорд
Бэрри Ван Дайк
Робин Дугласс
Лорн Грин
Джеймс Патрик Стюарт
Ричард Линч
Робби Рист
Джон Коликос
Роберт Рид
Уильям Дэниелс
Описание: Действие сериала Galactica 1980 происходит спустя тридцать лет после событий сериала "Звездный крейсер «Галактика»", . Флот-беглец наконец достигает своей легендарной цели. Но командующий Адама обнаруживает, что планета Земля в 1980 году технологически недостаточно развита, чтобы помочь им в битве с сайлонами. Более того, прибыв на Землю, Галактика непреднамеренно подставила беспомощную планету под удар расы андроидов, тем самым обрекая на уничтожение все человечество.
Доп. информация: В 1981 году на основе сериала Galactica 1980 был смонтирован фильм под названием «Завоевание Земли» (англ. Conquest of the Earth), который демонстрировался в кинотеатрах Западной Европы и Австралии.
Киноверсия состоит из фрагментов эпизодов «„Галактика“ исследует Землю» и «Ночь, когда сайлоны приземлились».
Фильм появился благодаря Андрею Бондаренко и Slavnus Spacedust при участии sasha20072007, а также Slipknot_cooler
Сэмпл: http://sendfile.su/856619
Тип релиза: HDTVRip 1080p
Контейнер: MKV
Видео: x264 7300 kbps 1440х1080 25 fps
Аудио: AC3 2 ch 48khz 192 kbps (русский)
Аудио 2: AC3 6 ch 48khz 384 kbps (немецкий)

Скриншоты

MediaInfo

Уникальный идентификатор : 253043615690839805728527674200280248335 (0xBE5E6D7BBF95CBB48162F92E7957B00F)
Полное имя : N:\Galactica III Conquest of the Earth 1981.x264.HDTVRip.1080p.kosmoaelita.mkv
Формат : Matroska
Версия формата : Version 4 / Version 2
Размер файла : 5,02 Гбайт
Продолжительность : 1 ч. 34 м.
Общий поток : 7607 Кбит/сек
Название фильма : Завоевание Земли / Conquest of the Earth / Galactica III: Conquest of the Earth / 1981 / Релиз СПАМ
Дата кодирования : UTC 2013-08-21 01:51:19
Программа кодирования : mkvmerge v6.3.0 ('You can't stop me!') built on Jun 28 2013 20:09:41
Библиотека кодирования : libebml v1.3.0 + libmatroska v1.4.0
Видео
Идентификатор : 1
Формат : AVC
Формат/Информация : Advanced Video Codec
Профиль формата : High@L4.1
Параметр CABAC формата : Да
Параметр ReFrames формата : 5 кадров
Идентификатор кодека : V_MPEG4/ISO/AVC
Продолжительность : 1 ч. 34 м.
Битрейт : 7030 Кбит/сек
Ширина : 1440 пикселей
Высота : 1080 пикселей
Соотношение сторон : 4:3
Режим частоты кадров : Постоянный
Частота кадров : 25,000 кадров/сек
Цветовое пространство : YUV
Субдискретизация насыщенности : 4:2:0
Битовая глубина : 8 бит
Тип развёртки : Прогрессивная
Бит/(Пиксели*Кадры) : 0.181
Размер потока : 4,54 Гбайт (90%)
Заголовок : Релиз СПАМ
Библиотека кодирования : x264 core 115 r1937 aa21558
Настройки программы : cabac=1 / ref=5 / deblock=1:-3:-3 / analyse=0x3:0x113 / me=umh / subme=10 / psy=0 / mixed_ref=1 / me_range=32 / chroma_me=1 / trellis=2 / 8x8dct=1 / cqm=0 / deadzone=21,11 / fast_pskip=1 / chroma_qp_offset=0 / threads=12 / sliced_threads=0 / nr=0 / decimate=1 / interlaced=0 / bluray_compat=0 / constrained_intra=0 / bframes=5 / b_pyramid=2 / b_adapt=2 / b_bias=0 / direct=3 / weightb=1 / open_gop=0 / weightp=2 / keyint=250 / keyint_min=25 / scenecut=40 / intra_refresh=0 / rc_lookahead=80 / rc=2pass / mbtree=1 / bitrate=7030 / ratetol=1.0 / qcomp=0.80 / qpmin=0 / qpmax=69 / qpstep=4 / cplxblur=20.0 / qblur=0.5 / ip_ratio=1.40 / aq=1:0.80
Язык : English
Default : Нет
Forced : Нет
Аудио #1
Идентификатор : 2
Формат : AC-3
Формат/Информация : Audio Coding 3
Расширение режима : CM (complete main)
Параметр Endianness формата : Big
Идентификатор кодека : A_AC3
Продолжительность : 1 ч. 34 м.
Вид битрейта : Постоянный
Битрейт : 192 Кбит/сек
Каналы : 2 канала
Расположение каналов : Front: L R
Частота : 48,0 КГц
Битовая глубина : 16 бит
Метод сжатия : С потерями
Размер потока : 130 Мбайт (3%)
Заголовок : Русский АО (Горчаков)
Язык : Russian
Default : Да
Forced : Нет
Аудио #2
Идентификатор : 3
Формат : AC-3
Формат/Информация : Audio Coding 3
Расширение режима : CM (complete main)
Параметр Endianness формата : Big
Идентификатор кодека : A_AC3
Продолжительность : 1 ч. 34 м.
Вид битрейта : Постоянный
Битрейт : 384 Кбит/сек
Каналы : 6 каналов
Расположение каналов : Front: L C R, Side: L R, LFE
Частота : 48,0 КГц
Битовая глубина : 16 бит
Метод сжатия : С потерями
Размер потока : 260 Мбайт (5%)
Язык : German
Default : Нет
Forced : Нет

x264.log

x264 [info]: profile High, level 4.1
x264 [info]: frame I:1189 Avg QP:15.55 size:122316
x264 [info]: frame P:36470 Avg QP:17.82 size: 59167
x264 [info]: frame B:104161 Avg QP:20.21 size: 25741
Скачать

Скачать торрент!

Как скачивать? · Что такое торрент? · Рейтинг и ограничения

Сайт не распространяет и не хранит электронные версии произведений, а лишь предоставляет доступ к создаваемому пользователями каталогу ссылок на торрент-файлы, которые содержат только списки хеш-сумм

[Профиль] [ЛС]
Показать сообщения:    
Ответить на тему

Текущее время: Сегодня 22:15

Часовой пояс: GMT + 4



Вы не можете начинать темы
Вы не можете отвечать на сообщения
Вы не можете редактировать свои сообщения
Вы не можете удалять свои сообщения
Вы не можете голосовать в опросах
Вы не можете прикреплять файлы к сообщениям
Вы не можете скачивать файлы