Надин / Nadine (Роберт Бентон / Robert Benton) [1987, США, комедия, криминал, WEB-DL 720p] MVO (1 канал) + DVO (НТВ+) + AVO (Вартан Дохалов) + Sub Eng + Original Eng

Ответить на тему
 
Автор Сообщение

user ®

Стаж: 7 лет 7 месяцев

Сообщений: 20008

Пост Пост: #1 от 31-Авг-2013 15:50

[Цитировать]

Надин / Nadine
Страна: США
Жанр: комедия, криминал
Год выпуска: 1987
Продолжительность: 01:22:56
Перевод 1: Профессиональный (многоголосый закадровый) 1 канал
Перевод 2: Профессиональный (двухголосый закадровый) НТВ+
Перевод 3: Авторский (одноголосый закадровый) Вартан Дохалов
Cубтитры: английские
Оригинальная аудиодорожка: английский
Режиссер: Роберт Бентон / Robert Benton
В ролях: Джефф Бриджес, Ким Бейсингер, Рип Торн, Гвен Вердон, Гленн Хедли, Джерри Стиллер, Джей Пэттерсон, Уильям Юманс, Гэри Граббс, Мики Джонс...
Описание: Надин и Вернон собираются разводиться. Однако, обнаружив у себя чужие документы и став невольной свидетельницей убийства, Надин обращается за помощью к своему «почти бывшему» мужу, и их любовь разгорается с новой силой…
Сэмпл: http://multi-up.com/898668
Тип релиза: WEB-DL 720p
Контейнер: MKV
Видео: 1280x718 (16:9), 23.976 fps, AVC 4 000 Kbps
Аудио 1: Russian, 48.0 KHz, AC3, 2 ch, 128 Kbps - MVO 1 канал
Аудио 2: Russian, 48.0 KHz, AC3, 2 ch, 128 Kbps - DVO НТВ+
Аудио 3: Russian, 48.0 KHz, AC3, 2 ch, 192 Kbps - AVO Вартан Дохалов
Аудио 4: English, 48.0 KHz, AAC LC, 2 ch 80 Kbps
Формат субтитров: softsub (SRT)

MediaInfo

General
Unique ID : 188705729050706533002289374145459885446 (0x8DF766C3D44D197D9EB48435EF399586)
Complete name : D:\Nadine.mkv
Format : Matroska
Format version : Version 4 / Version 2
File size : 2.62 GiB
Duration : 1h 22mn
Overall bit rate : 4 527 Kbps
Encoded date : UTC 2013-08-30 13:43:24
Writing application : mkvmerge v6.3.0 ('You can't stop me!') built on Jun 27 2013 22:06:07
Writing library : libebml v1.3.0 + libmatroska v1.4.0
Video
ID : 1
Format : AVC
Format/Info : Advanced Video Codec
Format profile : High@L3.1
Format settings, CABAC : No
Format settings, ReFrames : 2 frames
Codec ID : V_MPEG4/ISO/AVC
Duration : 1h 22mn
Width : 1 280 pixels
Height : 718 pixels
Display aspect ratio : 16:9
Frame rate mode : Constant
Frame rate : 23.976 fps
Color space : YUV
Chroma subsampling : 4:2:0
Bit depth : 8 bits
Scan type : Progressive
Default : Yes
Forced : No
Color primaries : BT.709
Transfer characteristics : BT.709
Matrix coefficients : BT.709
Audio #1
ID : 2
Format : AC-3
Format/Info : Audio Coding 3
Mode extension : CM (complete main)
Format settings, Endianness : Big
Codec ID : A_AC3
Duration : 1h 22mn
Bit rate mode : Constant
Bit rate : 128 Kbps
Channel count : 2 channels
Channel positions : Front: L R
Sampling rate : 48.0 KHz
Bit depth : 16 bits
Compression mode : Lossy
Stream size : 75.9 MiB (3%)
Title : MVO 1 канал
Language : Russian
Default : No
Forced : No
Audio #2
ID : 3
Format : AC-3
Format/Info : Audio Coding 3
Mode extension : CM (complete main)
Format settings, Endianness : Big
Codec ID : A_AC3
Duration : 1h 22mn
Bit rate mode : Constant
Bit rate : 128 Kbps
Channel count : 2 channels
Channel positions : Front: L R
Sampling rate : 48.0 KHz
Bit depth : 16 bits
Compression mode : Lossy
Stream size : 75.9 MiB (3%)
Title : DVO
Language : Russian
Default : No
Forced : No
Audio #3
ID : 4
Format : AC-3
Format/Info : Audio Coding 3
Mode extension : CM (complete main)
Format settings, Endianness : Big
Codec ID : A_AC3
Duration : 1h 22mn
Bit rate mode : Constant
Bit rate : 192 Kbps
Channel count : 2 channels
Channel positions : Front: L R
Sampling rate : 48.0 KHz
Bit depth : 16 bits
Compression mode : Lossy
Stream size : 114 MiB (4%)
Title : AVO Вартан Дохалов
Language : Russian
Default : No
Forced : No
Audio #4
ID : 5
Format : AAC
Format/Info : Advanced Audio Codec
Format profile : LC
Codec ID : A_AAC
Duration : 1h 22mn
Channel count : 2 channels
Channel positions : Front: L R
Sampling rate : 48.0 KHz
Compression mode : Lossy
Language : English
Default : No
Forced : No
Text
ID : 6
Format : UTF-8
Codec ID : S_TEXT/UTF8
Codec ID/Info : UTF-8 Plain Text
Language : English
Default : No
Forced : No
Menu
00:00:00.000 : en:Start
00:06:06.000 : en:Vernon & the Blue Bonnet
00:15:02.000 : en:Police Pursuit
00:22:33.000 : en:Hightower's Reunited
00:28:10.000 : en:Buford Pope
00:35:00.000 : en:Asking Nicely
00:46:08.000 : en:Two-Bit Loser
00:51:42.000 : en:Fish in a Barrel
00:58:45.000 : en:Northern Passage
01:03:21.000 : en:Doublecross
01:10:26.000 : en:Problem Solved
01:16:43.000 : en:Triumph of the Nitwits

Скриншоты

Скачать

Скачать торрент!

Как скачивать? · Что такое торрент? · Рейтинг и ограничения

Сайт не распространяет и не хранит электронные версии произведений, а лишь предоставляет доступ к создаваемому пользователями каталогу ссылок на торрент-файлы, которые содержат только списки хеш-сумм

[Профиль] [ЛС]
Показать сообщения:    
Ответить на тему

Текущее время: Сегодня 13:40

Часовой пояс: GMT + 4



Вы не можете начинать темы
Вы не можете отвечать на сообщения
Вы не можете редактировать свои сообщения
Вы не можете удалять свои сообщения
Вы не можете голосовать в опросах
Вы не можете прикреплять файлы к сообщениям
Вы не можете скачивать файлы