Перекресток / Intersections (Дэвид Маркони / David Marconi) [2013, Франция, триллер, мелодрама, HDRip] VO

Ответить на тему
 
Автор Сообщение

user ®

Стаж: 7 лет 7 месяцев

Сообщений: 20008

Пост Пост: #1 от 31-Авг-2013 15:50

[Цитировать]

Перекресток / Intersections
Страна: Франция
Жанр: триллер, мелодрама
Год выпуска: 2013
Продолжительность: 01:41:25
Перевод: Одноголосый закадровый [Хихикающий доктор]
Cубтитры: нет
Режиссер: Дэвид Маркони / David Marconi-В ролях: Фрэнк Грилло, Джейми Александер, Рошди Зем, Мари-Жозе Кроз, Мусса Мааскри, Чарли Бьюли, Аффиф Бен Бадра, Карлос Леаль, Габриэлла Райт, Абделила Надиф
Описание: В центре сюжета молодая пара. Однако их брак не так уж безоблачен. У женщины есть любовник на стороне, и с его помощью она разрабатывает план убийства мужа. Но все идет наперекосяк, когда муж и его соперник оказываются вместе на марокканской пустынной дороге после автомобильной катастрофы.-Доп. информация: премьера (мир) 30 января 2013

-Качество видео: HDRip
Формат видео: AVI
Видео: XviD, 1665 kb/s, 720x304 (2,35:1), 24 fps
Аудио: MP3, 224 kb/s (2 ch)

MediaInfo

Общее
Полное имя : D:\AVI\Intersections.2013.L1.HDRip.1400Mb.avi
Формат : AVI
Формат/Информация : Audio Video Interleave
Размер файла : 1,35 Гбайт
Продолжительность : 1 ч. 41 м.
Общий поток : 1899 Кбит/сек
Программа кодирования : VirtualDubMod 1.5.10.3 | www.virtualdub-fr.org || (build 2550/release)
Библиотека кодирования : VirtualDub build 32706/release
Видео
Идентификатор : 0
Формат : MPEG-4 Visual
Профиль формата : Advanced Simple@L5
Параметр BVOP формата : 1
Параметр QPel формата : Нет
Параметр GMC формата : Без точки перехода
Параметр матрицы формата : Выборочная
Идентификатор кодека : XVID
Идентификатор кодека/Подсказка : XviD
Продолжительность : 1 ч. 41 м.
Битрейт : 1665 Кбит/сек
Ширина : 720 пикселей
Высота : 304 пикселя
Соотношение сторон : 2,35:1
Частота кадров : 24,000 кадра/сек
Цветовое пространство : YUV
Субдискретизация насыщенности : 4:2:0
Битовая глубина : 8 бит
Тип развёртки : Прогрессивная
Метод сжатия : С потерями
Бит/(Пиксели*Кадры) : 0.317
Размер потока : 1,18 Гбайт (88%)
Библиотека кодирования : XviD 1.2.1 (UTC 2008-12-04)
Аудио
Идентификатор : 1
Формат : MPEG Audio
Версия формата : Version 1
Профиль формата : Layer 3
Режим : Joint stereo
Идентификатор кодека : 55
Идентификатор кодека/Подсказка : MP3
Продолжительность : 1 ч. 41 м.
Вид битрейта : Постоянный
Битрейт : 224 Кбит/сек
Каналы : 2 канала
Частота : 48,0 КГц
Метод сжатия : С потерями
Размер потока : 162 Мбайт (12%)
Выравнивание : Разделение по промежуткам
Продолжительность промежутка : 42 мс. (1,00 видеокадр)
Время предзагрузки промежутка : 500 мс.

Скриншоты

Скачать

Скачать торрент!

Как скачивать? · Что такое торрент? · Рейтинг и ограничения

Сайт не распространяет и не хранит электронные версии произведений, а лишь предоставляет доступ к создаваемому пользователями каталогу ссылок на торрент-файлы, которые содержат только списки хеш-сумм

[Профиль] [ЛС]
Показать сообщения:    
Ответить на тему

Текущее время: Сегодня 22:16

Часовой пояс: GMT + 4



Вы не можете начинать темы
Вы не можете отвечать на сообщения
Вы не можете редактировать свои сообщения
Вы не можете удалять свои сообщения
Вы не можете голосовать в опросах
Вы не можете прикреплять файлы к сообщениям
Вы не можете скачивать файлы