Перекрестки судеб / Intersections (Дэвид Маркони / David Marconi) [2013, Франция, триллер, мелодрама, DVDRip] VO (Хихидок)

Ответить на тему
 
Автор Сообщение

user ®

Стаж: 7 лет 7 месяцев

Сообщений: 20008

Пост Пост: #1 от 31-Авг-2013 03:15

[Цитировать]

Перекрестки судеб / Intersections
Выпущено: Франция, Canal+ [fr], EuropaCorp, Grive Productions
Жанр: триллер, мелодрама
Год выпуска: 2013
Продолжительность: 01:37:21
Перевод: Любительский (одноголосый закадровый) Хихикающий доктор
Cубтитры: нет
Оригинальная аудиодорожка: нет
Режиссер: Дэвид Маркони / David Marconi
В ролях: Фрэнк Грилло, Джейми Александер, Рошди Зем, Мари-Жозе Кроз, Мусса Мааскри, Чарли Бьюли, Аффиф Бен Бадра, Карлос Леаль, Габриэлла Райт, Абделила Надиф и др.
Описание: В центре сюжета молодая пара. Однако их брак не так уж безоблачен. У женщины есть любовник на стороне, и с его помощью она разрабатывает план убийства мужа. Но все идет наперекосяк, когда муж и его соперник оказываются вместе на марокканской пустынной дороге после автомобильной катастрофы.
смотреть ТРЕЙЛЕР к фильму на youtube
скачать СЕМПЛ с multi-up
Качество видео: DVDRip
Формат видео: AVI
Видео: XviD, 863 Кбит/с, 640x272
Аудио: MP3, 2 ch, 256 Кбит/с

MediaInfo

X:\FILMS\Films\Intersections.2013. Xixidok.avi
General
Complete name : X:\FILMS\Films\Intersections.2013. Xixidok.avi
Format : AVI
Format/Info : Audio Video Interleave
File size : 787 MiB
Duration : 1h 37mn
Overall bit rate : 1 129 Kbps
Writing application : VirtualDubMod 1.5.10.3 (build 2550/release)
Writing library : VirtualDubMod build 2550/release
Video #0
ID : 0
Format : MPEG-4 Visual
Format profile : Advanced Simple@L5
Format settings, BVOP : 2
Format settings, QPel : No
Format settings, GMC : No warppoints
Format settings, Matrix : Default (H.263)
Muxing mode : Packed bitstream
Codec ID : XVID
Codec ID/Hint : XviD
Duration : 1h 37mn
Bit rate : 864 Kbps
Width : 640 pixels
Height : 272 pixels
Display aspect ratio : 2.35:1
Frame rate : 25.000 fps
Color space : YUV
Chroma subsampling : 4:2:0
Bit depth : 8 bits
Scan type : Progressive
Compression mode : Lossy
Bits/(Pixel*Frame) : 0.198
Stream size : 602 MiB (76%)
Writing library : XviD 1.2.1 (UTC 2008-12-04)
Audio #1
ID : 1
Format : MPEG Audio
Format version : Version 1
Format profile : Layer 3
Codec ID : 55
Codec ID/Hint : MP3
Duration : 1h 37mn
Bit rate mode : Constant
Bit rate : 256 Kbps
Channel(s) : 2 channels
Sampling rate : 44.1 KHz
Compression mode : Lossy
Stream size : 178 MiB (23%)
Alignment : Split accross interleaves
Interleave, duration : 40 ms (1.00 video frame)
Interleave, preload duration : 500 ms

Скриншот c названием фильма

Скриншоты

Скачать

Скачать торрент!

Как скачивать? · Что такое торрент? · Рейтинг и ограничения

Сайт не распространяет и не хранит электронные версии произведений, а лишь предоставляет доступ к создаваемому пользователями каталогу ссылок на торрент-файлы, которые содержат только списки хеш-сумм

[Профиль] [ЛС]
Показать сообщения:    
Ответить на тему

Текущее время: Сегодня 02:21

Часовой пояс: GMT + 4



Вы не можете начинать темы
Вы не можете отвечать на сообщения
Вы не можете редактировать свои сообщения
Вы не можете удалять свои сообщения
Вы не можете голосовать в опросах
Вы не можете прикреплять файлы к сообщениям
Вы не можете скачивать файлы