Рыжий, честный, влюблённый (Леонид Нечаев) [1984, экранизация, DVB]

Ответить на тему
 
Автор Сообщение

user ®

Стаж: 7 лет 7 месяцев

Сообщений: 20008

Пост Пост: #1 от 31-Авг-2013 00:05

[Цитировать]

Рыжий, честный, влюблённый (2 серии)
Жанр: экранизация
Год выпуска: 1984
Продолжительность: 01:13:12 + 01:11:20
Режиссёр: Леонид Нечаев
В ролях: Денис Зайцев, Мария Яхонтова, Алексей Круглов, Ксения Кутепова, Полина Кутепова, Саша Навинский, Альберт Филозов, Екатерина Васильева, Ирина Мирошниченко, Татьяна Агафонова, Вадим Александров, Татьяна Пельтцер, Вера Титова, Николай Трофимов, Николай Ферапонтов
Описание: Музыкальная сказка об удивительной дружбе лисенка Людвига Четырнадцатого и очаровательной Тутты, совсем-совсем не лисенка. И о том, как эта дружба перевернула жизнь большого леса и респектабельного курятника...
Доп. информация: Запись потока *.ts со спутника EUTELSAT, ремукс в *.mpg программой VideoReDo.
Качество видео: DVB
Формат видео: MPEG-PS
Видео: MPEG2 Video, 720x576 (4:3), 25,000 кадров/сек, 4 820 Кбит/сек
Аудио: MPEG Audio, 48,0 КГц, 192 Кбит/сек, 2 канала

MediaInfo

General
Complete name : X:\Torrent\РЫЖИЙ, ЧЕСТНЫЙ, ВЛЮБЛЕННЫЙ\РЫЖИЙ, ЧЕСТНЫЙ, ВЛЮБЛЕННЫЙ 1 (Ностальгия).mpg
Format : MPEG-PS
File size : 2.61 GiB
Duration : 1h 13mn
Overall bit rate mode : Variable
Overall bit rate : 5 114 Kbps
Video
ID : 224 (0xE0)
Format : MPEG Video
Format version : Version 2
Format profile : Main@Main
Format settings, BVOP : Yes
Format settings, Matrix : Custom
Format settings, GOP : M=2, N=36
Duration : 1h 13mn
Bit rate mode : Variable
Bit rate : 4 820 Kbps
Maximum bit rate : 15.0 Mbps
Width : 720 pixels
Height : 576 pixels
Display aspect ratio : 4:3
Frame rate : 25.000 fps
Standard : PAL
Color space : YUV
Chroma subsampling : 4:2:0
Bit depth : 8 bits
Scan type : Interlaced
Scan order : Top Field First
Compression mode : Lossy
Bits/(Pixel*Frame) : 0.465
Stream size : 2.46 GiB (94%)
Audio
ID : 192 (0xC0)
Format : MPEG Audio
Format version : Version 1
Format profile : Layer 2
Duration : 1h 13mn
Bit rate mode : Constant
Bit rate : 192 Kbps
Channel(s) : 2 channels
Sampling rate : 48.0 KHz
Compression mode : Lossy
Stream size : 101 MiB (4%)
General
Complete name : X:\Torrent\РЫЖИЙ, ЧЕСТНЫЙ, ВЛЮБЛЕННЫЙ\РЫЖИЙ, ЧЕСТНЫЙ, ВЛЮБЛЕННЫЙ 2 (Ностальгия).mpg
Format : MPEG-PS
File size : 2.51 GiB
Duration : 1h 11mn
Overall bit rate mode : Variable
Overall bit rate : 5 035 Kbps
Video
ID : 224 (0xE0)
Format : MPEG Video
Format version : Version 2
Format profile : Main@Main
Format settings, BVOP : Yes
Format settings, Matrix : Custom
Format settings, GOP : M=1, N=27
Duration : 1h 11mn
Bit rate mode : Variable
Bit rate : 4 743 Kbps
Maximum bit rate : 15.0 Mbps
Width : 720 pixels
Height : 576 pixels
Display aspect ratio : 4:3
Frame rate : 25.000 fps
Standard : PAL
Color space : YUV
Chroma subsampling : 4:2:0
Bit depth : 8 bits
Scan type : Interlaced
Scan order : Top Field First
Compression mode : Lossy
Bits/(Pixel*Frame) : 0.457
Stream size : 2.36 GiB (94%)
Audio
ID : 192 (0xC0)
Format : MPEG Audio
Format version : Version 1
Format profile : Layer 2
Duration : 1h 11mn
Bit rate mode : Constant
Bit rate : 192 Kbps
Channel(s) : 2 channels
Sampling rate : 48.0 KHz
Compression mode : Lossy
Stream size : 98.0 MiB (4%)

Скриншоты

Скачать

Скачать торрент!

Как скачивать? · Что такое торрент? · Рейтинг и ограничения

Сайт не распространяет и не хранит электронные версии произведений, а лишь предоставляет доступ к создаваемому пользователями каталогу ссылок на торрент-файлы, которые содержат только списки хеш-сумм

[Профиль] [ЛС]
Показать сообщения:    
Ответить на тему

Текущее время: Сегодня 05:05

Часовой пояс: GMT + 4



Вы не можете начинать темы
Вы не можете отвечать на сообщения
Вы не можете редактировать свои сообщения
Вы не можете удалять свои сообщения
Вы не можете голосовать в опросах
Вы не можете прикреплять файлы к сообщениям
Вы не можете скачивать файлы