Мой папа – Барышников (Дмитрий Поволоцкий, Марк Другой) [2011, драма, комедия, WEB-DLRip]

Ответить на тему
 
Автор Сообщение

user ®

Стаж: 7 лет 7 месяцев

Сообщений: 20008

Пост Пост: #1 от 30-Авг-2013 17:45

[Цитировать]

Мой папа – Барышников- Жанр: драма, комедия
Год выпуска: 2011
Продолжительность: 01:27:42-Режиссёр: Дмитрий Поволоцкий, Марк Другой-В ролях: Дмитрий Выскубенко, Анна Михалкова, Владимир Капустин, Марина Полицеймако, Илья Рутберг, Людмила Титова, Анатолий Кот, Сергей Сосновский, Ксения Суркова, Лилия Ямада ...-Описание: Москва, 1986 год. Начинается Перестройка. Обаятельный и неуклюжий мальчик Боря учится в хореографическом училище Большого Театра, любит музыку диско, мечтает танцевать с самой красивой девчонкой в классе и раскрывает удивительную тайну: его отец — великий танцор Михаил Барышников…
Cовременный и жизнеутверждающий взгляд на не столь отдаленную эпоху, когда все мы жили в одинаковых квартирах с одинаковой мебелью и носили одинаковую одежду. А мечтали — быть разными.- -Исходник: My.Dad.Baryshnikov.2011.720p.WEB-DL.Rus.HDCLUB.mkv
Качество видео: WEB-DLRip | Семпл-Формат видео: AVI
Видео: 688x368 (1.87:1), 25 fps, XviD build 73 ~1052 kbps avg, 0.17 bit/pixel
Аудио: 48 kHz, MPEG Layer 3, 2 ch, 128.00 kbps

MediaInfo

General
Complete name                            : My.Dad.Baryshnikov.2011.720p.WEB-DL.Rus.HDCLUB.avi
Format                                   : AVI
Format/Info                              : Audio Video Interleave
File size                                : 746 MiB
Duration                                 : 1h 27mn
Overall bit rate                         : 1 190 Kbps
Writing application                      : VirtualDubMod 1.5.10.3 | www.virtualdub-fr.org || (build 2550/release)
Writing library                          : VirtualDubMod build 2550/release
Video
ID                                       : 0
Format                                   : MPEG-4 Visual
Format profile                           : Advanced Simple@L5
Format settings, BVOP                    : 1
Format settings, QPel                    : No
Format settings, GMC                     : No warppoints
Format settings, Matrix                  : Custom
Codec ID                                 : XVID
Codec ID/Hint                            : XviD
Duration                                 : 1h 27mn
Bit rate                                 : 1 052 Kbps
Width                                    : 688 pixels
Height                                   : 368 pixels
Display aspect ratio                     : 1.85:1
Frame rate                               : 25.000 fps
Color space                              : YUV
Chroma subsampling                       : 4:2:0
Bit depth                                : 8 bits
Scan type                                : Progressive
Compression mode                         : Lossy
Bits/(Pixel*Frame)                       : 0.166
Stream size                              : 660 MiB (88%)
Writing library                          : XviD 73
Audio
ID                                       : 1
Format                                   : MPEG Audio
Format version                           : Version 1
Format profile                           : Layer 3
Codec ID                                 : 55
Codec ID/Hint                            : MP3
Duration                                 : 1h 27mn
Bit rate mode                            : Constant
Bit rate                                 : 128 Kbps
Channel count                            : 2 channels
Sampling rate                            : 48.0 KHz
Compression mode                         : Lossy
Stream size                              : 80.3 MiB (11%)
Alignment                                : Aligned on interleaves
Interleave, duration                     : 40 ms (1.00 video frame)
Interleave, preload duration             : 504 ms
Writing library                          : LAME3.99r
Encoding settings                        : -m s -V 4 -q 0 -lowpass 17 -b 128

Скриншоты

Скачать

Скачать торрент!

Как скачивать? · Что такое торрент? · Рейтинг и ограничения

Сайт не распространяет и не хранит электронные версии произведений, а лишь предоставляет доступ к создаваемому пользователями каталогу ссылок на торрент-файлы, которые содержат только списки хеш-сумм

[Профиль] [ЛС]
Показать сообщения:    
Ответить на тему

Текущее время: Сегодня 02:15

Часовой пояс: GMT + 4



Вы не можете начинать темы
Вы не можете отвечать на сообщения
Вы не можете редактировать свои сообщения
Вы не можете удалять свои сообщения
Вы не можете голосовать в опросах
Вы не можете прикреплять файлы к сообщениям
Вы не можете скачивать файлы