Лучшее предложение / La migliore offerta / The Best Offer (Джузеппе Торнаторе / Giuseppe Tornatore) [2013, Италия, триллер, мелодрама, драма, BDRip 1080p] Dub (line) + Original (Eng)

Ответить на тему
 
Автор Сообщение

user ®

Стаж: 7 лет 7 месяцев

Сообщений: 20008

Пост Пост: #1 от 30-Авг-2013 05:10

[Цитировать]

Лучшее предложение / La migliore offerta / The Best Offer
Страна: Италия
Студия: Warner Bros, UniCredit Group, AdriAlpe-Media OEG, Business Location Sudtirol Alto Adige, Friuli Ven
Жанр: триллер, мелодрама, драма
Год выпуска: 2013
Продолжительность: 02:10:58
Перевод: Профессиональный (дублированный) Line
Cубтитры: нет
Оригинальная аудиодорожка: английский
Режиссер: Джузеппе Торнаторе / Giuseppe Tornatore
В ролях: Джим Стёрджесс, Дональд Сазерленд, Джеффри Раш, Сильвия Хукс, Филип Джексон, Лия Кебеде, Дермот Краули, Кируна Стамелл, Майлз Ричардсон, Линн Суонсон
Описание: Вергилий Олдман, управляющий директор ведущего аукционного дома. В секретном зале своей виллы, он собрал сотни бесценных картин из разных эпох. Однажды таинственная женщина, скрывающая свою личность, просит продать его антиквариат ее семьи. Но Олдман заинтересован не только предметами старины, его все больше очаровывает сама женщина…
Сэмпл: http://rusfolder.com/37800331
Тип релиза: BDRip 1080p
Контейнер: MKV
Видео: 9900 Кбит/сек, 1920х800, 24,000 кадра/сек, AVC
Аудио 1: Russian, 192 Кбит/сек, 48,0 КГц, 16 бит, 2 канала, AC-3
Аудио 2: Italian, 640 Кбит/сек, 48,0 КГц, 16 бит, 6 каналов, AC-3
Аудио 3: English, 640 Кбит/сек, 48,0 КГц, 16 бит, 6 каналов, AC-3

MediaInfo

Общее
Уникальный идентификатор : 231510608601614347988184836654307887523 (0xAE2B524450D798198CD1D724C84E49A3)
Полное имя : E:\Скаченное с Интернета\µTorrent новые\La migliore offerta.mkv
Формат : Matroska
Версия формата : Version 4 / Version 2
Размер файла : 10,4 Гбайт
Продолжительность : 2 ч. 10 м.
Общий поток : 11,3 Мбит/сек
Название фильма : La migliore offerta
Дата кодирования : UTC 2013-08-28 21:15:43
Программа кодирования : mkvmerge v6.3.0 ('You can't stop me!') built on Jun 28 2013 20:09:41
Библиотека кодирования : libebml v1.3.0 + libmatroska v1.4.0
Attachment : Azpidatzi hizkia / Azala
Видео
Идентификатор : 1
Формат : AVC
Формат/Информация : Advanced Video Codec
Профиль формата : Main@L4.0
Параметр CABAC формата : Да
Параметр ReFrames формата : 4 кадра
Идентификатор кодека : V_MPEG4/ISO/AVC
Продолжительность : 2 ч. 10 м.
Битрейт : 9900 Кбит/сек
Ширина : 1920 пикселей
Высота : 800 пикселей
Соотношение сторон : 2,40:1
Режим частоты кадров : Переменный
Частота кадров : 24,000 кадра/сек
Цветовое пространство : YUV
Субдискретизация насыщенности : 4:2:0
Битовая глубина : 8 бит
Тип развёртки : Прогрессивная
Бит/(Пиксели*Кадры) : 0.269
Размер потока : 8,82 Гбайт (85%)
Библиотека кодирования : x264 core 120
Настройки программы : cabac=1 / ref=1 / deblock=1:0:0 / analyse=0x1:0x111 / me=hex / subme=2 / psy=1 / psy_rd=1.00:0.00 / mixed_ref=0 / me_range=16 / chroma_me=1 / trellis=0 / 8x8dct=0 / cqm=0 / deadzone=21,11 / fast_pskip=1 / chroma_qp_offset=0 / threads=6 / sliced_threads=0 / nr=0 / decimate=1 / interlaced=0 / bluray_compat=0 / constrained_intra=0 / bframes=3 / b_pyramid=2 / b_adapt=1 / b_bias=0 / direct=1 / weightb=1 / open_gop=0 / weightp=1 / keyint=240 / keyint_min=24 / scenecut=40 / intra_refresh=0 / rc_lookahead=10 / rc=abr / mbtree=1 / bitrate=9900 / ratetol=1.0 / qcomp=0.60 / qpmin=3 / qpmax=69 / qpstep=4 / ip_ratio=1.40 / aq=1:1.00
Язык : Italian
Default : Да
Forced : Нет
Основные цвета : BT.709-5, BT.1361, IEC 61966-2-4, SMPTE RP177
Характеристики трансфера : BT.709-5, BT.1361
Коэффициенты матрицы : BT.709-5, BT.1361, IEC 61966-2-4 709, SMPTE RP177
Аудио #1
Идентификатор : 2
Формат : AC-3
Формат/Информация : Audio Coding 3
Расширение режима : CM (complete main)
Параметр Endianness формата : Big
Идентификатор кодека : A_AC3
Продолжительность : 2 ч. 10 м.
Вид битрейта : Постоянный
Битрейт : 192 Кбит/сек
Каналы : 2 канала
Расположение каналов : Front: L R
Частота : 48,0 КГц
Битовая глубина : 16 бит
Метод сжатия : С потерями
Размер потока : 180 Мбайт (2%)
Язык : Russian
Default : Да
Forced : Нет
Аудио #2
Идентификатор : 3
Формат : AC-3
Формат/Информация : Audio Coding 3
Расширение режима : CM (complete main)
Параметр Endianness формата : Big
Идентификатор кодека : A_AC3
Продолжительность : 2 ч. 10 м.
Вид битрейта : Постоянный
Битрейт : 640 Кбит/сек
Каналы : 6 каналов
Расположение каналов : Front: L C R, Side: L R, LFE
Частота : 48,0 КГц
Битовая глубина : 16 бит
Метод сжатия : С потерями
Размер потока : 600 Мбайт (6%)
Язык : Italian
Default : Нет
Forced : Нет
Аудио #3
Идентификатор : 4
Формат : AC-3
Формат/Информация : Audio Coding 3
Расширение режима : CM (complete main)
Параметр Endianness формата : Big
Идентификатор кодека : A_AC3
Продолжительность : 2 ч. 10 м.
Вид битрейта : Постоянный
Битрейт : 640 Кбит/сек
Каналы : 6 каналов
Расположение каналов : Front: L C R, Side: L R, LFE
Частота : 48,0 КГц
Битовая глубина : 16 бит
Метод сжатия : С потерями
Размер потока : 600 Мбайт (6%)
Язык : English
Default : Нет
Forced : Нет
Меню
00:00:00.000 : en:Chapter 1
00:08:59.875 : en:Chapter 2
00:16:33.542 : en:Chapter 3
00:32:53.167 : en:Chapter 4
00:48:00.500 : en:Chapter 5
00:53:51.500 : en:Chapter 6
01:01:55.000 : en:Chapter 7
01:11:45.958 : en:Chapter 8
01:24:45.458 : en:Chapter 9
01:34:51.833 : en:Chapter 10
01:40:27.000 : en:Chapter 11
01:57:58.667 : en:Chapter 12

Скриншоты

Скачать

Скачать торрент!

Как скачивать? · Что такое торрент? · Рейтинг и ограничения

Сайт не распространяет и не хранит электронные версии произведений, а лишь предоставляет доступ к создаваемому пользователями каталогу ссылок на торрент-файлы, которые содержат только списки хеш-сумм

[Профиль] [ЛС]
Показать сообщения:    
Ответить на тему

Текущее время: Сегодня 02:27

Часовой пояс: GMT + 4



Вы не можете начинать темы
Вы не можете отвечать на сообщения
Вы не можете редактировать свои сообщения
Вы не можете удалять свои сообщения
Вы не можете голосовать в опросах
Вы не можете прикреплять файлы к сообщениям
Вы не можете скачивать файлы