Леди - железная обезьяна / Lady Iron Monkey / Fighting Justice / Ape Girl / Zui hou nu (Чэнь Чжихуа / Chen Chi-Hwa) [1979, Тайвань, боевые искусства, VHSRip] AVO (Сергей Кузнецов)

Ответить на тему
 
Автор Сообщение

user ®

Стаж: 11 лет

Сообщений: 15151

Пост Пост: #1 от 29-Авг-2013 01:10

[Цитировать]

Леди - железная обезьяна / Lady Iron Monkey / Fighting Justice / Ape Girl / Zui hou nu
Страна: Тайвань
Жанр: боевые искусства
Год выпуска: 1979
Продолжительность: 01:24:51
Перевод: Авторский (одноголосый закадровый) Сергей Кузнецов
Cубтитры: нет
Режиссер: Чэнь Чжихуа / Chen Chi-Hwa
В ролях: Чан Синг, Ло Лье, Мяо Тянь, Цзинь Фэнлин, Ли Вэньтай, Шао Лохуэй, Ай Цзыван, Чэнь Сэньлинь, Ван Чанчи
Описание: Она, возможно, была поднята обезьянами, но она является оружием массового уничтожения боевых искусств. Она в самом деле, мастер стиля кунг-фу обезьяны, и она нуждается в каждом из своих навыков, когда она пересекается с бандой гангстеров, намеревающихся использовать всех, кто стоит на их пути. Это одна обладающая железной волей леди, которая не отступила.
Благодарность: За исходник благодарность выражается шурик 555.
Сэмпл: http://multi-up.com/897957
Качество видео: VHSRip
Формат видео: AVI
Видео: 688x496 (1.39:1), 23.976 fps, XviD build 50 ~2168 kbps avg, 0.27 bit/pixel
Аудио: 48 kHz, MPEG Layer 3, 2 ch, ~128.00 kbps avg

MediaInfo

Format : AVI
Format/Info : Audio Video Interleave
File size : 1,37 Гбайт
Duration : 1 ч. 24 м.
Overall bit rate : 2306 Кбит/сек
Writing application : VirtualDubMod 1.5.10.3 | www.virtualdub-fr.org || (build 2550/release)
Writing library : VirtualDubMod build 2550/release
Видео
ID : 0
Format : MPEG-4 Visual
Format profile : Advanced Simple@L5
Format settings, BVOP : 2
Format settings, QPel : Нет
Format settings, GMC : Без точки перехода
Format settings, Matrix : Default (MPEG)
Codec ID : XVID
Codec ID/Hint : XviD
Duration : 1 ч. 24 м.
Bit rate : 2169 Кбит/сек
Width : 688 пикселей
Height : 496 пикселей
Display aspect ratio : 1,387
Frame rate : 23,976 кадра/сек
Color space : YUV
Chroma subsampling : 4:2:0
Bit depth : 8 бит
Scan type : Прогрессивная
Compression mode : С потерями
Bits/(Pixel*Frame) : 0.265
Stream size : 1,29 Гбайт (94%)
Writing library : XviD 1.2.1 (UTC 2008-12-04)
Аудио
ID : 1
Format : MPEG Audio
Format version : Version 1
Format profile : Layer 3
Codec ID : 55
Codec ID/Hint : MP3
Duration : 1 ч. 24 м.
Bit rate mode : Постоянный
Bit rate : 128 Кбит/сек
Channel(s) : 2 канала
Sampling rate : 48,0 КГц
Compression mode : С потерями
Stream size : 77,7 Мбайт (6%)
Alignment : Соединение по промежуткам
Interleave, duration : 42 мс. (1,00 видеокадр)
Interleave, preload duration : 504 мс.
Writing library : LAME3.99r
Encoding settings : -m s -V 4 -q 2 -lowpass 17 -b 128

Скриншот c названием фильма

Скриншоты

Скачать

Скачать торрент! Леди - железная обезьяна / Lady Iron Monkey / Fighting Justice / Ape Girl / Zui hou nu (Чэнь Чжихуа / Chen Chi-Hwa) [1979, Тайвань, боевые искусства, VHSRip] AVO (Сергей Кузнецов)

Как скачивать? · Что такое торрент? · Рейтинг и ограничения

Сайт не распространяет и не хранит электронные версии произведений, а лишь предоставляет доступ к создаваемому пользователями каталогу ссылок на торрент-файлы, которые содержат только списки хеш-сумм

[Профиль] [ЛС]
Показать сообщения:    
Ответить на тему

Текущее время: Сегодня 16:02

Часовой пояс: GMT + 4



Вы не можете начинать темы
Вы не можете отвечать на сообщения
Вы не можете редактировать свои сообщения
Вы не можете удалять свои сообщения
Вы не можете голосовать в опросах
Вы не можете прикреплять файлы к сообщениям
Вы не можете скачивать файлы