Любовь 911 / Love 911 (Чжон Чжи Хун / Jeong Ji Hoon) [2012, Корея Южная, драма, мелодрама, комедия, HDRip] DVO

Ответить на тему
 
Автор Сообщение

user ®

Стаж: 11 лет

Сообщений: 15151

Пост Пост: #1 от 29-Авг-2013 01:10

[Цитировать]

Любовь 911 / Love 911
Страна: Корея Южная
Жанр: драма, мелодрама, комедия
Год выпуска: 2012
Продолжительность: 02:00:48
Перевод: Любительский (двухголосый закадровый) [Ворон и Sandairina]
Cубтитры: нет
Оригинальная аудиодорожка: нет-Режиссер: Чжон Чжи Хун / Jeong Ji Hoon
В ролях: Го Су, Хан Хё Чжу, Хён Чю Ни, Ким Сон О, Ма Дон Сок, Чжин Со Ен-Описание: Пожарный Кан-Иль потерял свою жену. Доктор Ми-Су редко кому показывает, что умна. Что же будет когда эти двое встретятся? В состоянии ли они друг другу вылечить шрамы и комплексы, тщательно скрываемые внутри себя от посторонних?-Доп. информация: премьера (мир) 19 декабря 2012


-Качество видео: HDRip
Формат видео: AVI
Видео: XviD, 720x304 (2.37:1), 23.976 fps, ~1340 kbps, 0.26 bit/pixel
Аудио: AC3, 384 kbps, 48 kHz, 6 ch

MediaInfo

Общее
Полное имя : E:\Love 911.avi
Формат : AVI
Формат/Информация : Audio Video Interleave
Размер файла : 1,46 Гбайт
Продолжительность : 2 ч. 0 м.
Общий поток : 1734 Кбит/сек
Программа кодирования : VirtualDubMod 1.5.10.3 | www.virtualdub-fr.org || (build 2550/release)
Библиотека кодирования : VirtualDubMod build 2550/release
Видео
Идентификатор : 0
Формат : MPEG-4 Visual
Профиль формата : Advanced Simple@L5
Параметр BVOP формата : 2
Параметр QPel формата : Нет
Параметр GMC формата : Без точки перехода
Параметр матрицы формата : Default (MPEG)
Идентификатор кодека : DX50
Идентификатор кодека/Подсказка : DivX 5
Продолжительность : 2 ч. 0 м.
Продолжительность оригинала : 1 ч. 12 м.
Битрейт : 1416 Кбит/сек
Ширина : 720 пикселей
Высота : 304 пикселя
Соотношение сторон : 2,35:1
Частота кадров : 23,976 кадра/сек
Цветовое пространство : YUV
Субдискретизация насыщенности : 4:2:0
Битовая глубина : 8 бит
Тип развёртки : Прогрессивная
Метод сжатия : С потерями
Бит/(Пиксели*Кадры) : 0.270
Размер потока : 737 Мбайт (49%)
Библиотека кодирования : XviD 1.2.1 (UTC 2008-12-04)
Аудио
Идентификатор : 1
Формат : AC-3
Формат/Информация : Audio Coding 3
Расширение режима : CM (complete main)
Параметр Endianness формата : Big
Идентификатор кодека : 2000
Продолжительность : 2 ч. 0 м.
Продолжительность оригинала : 1 ч. 12 м.
Вид битрейта : Постоянный
Битрейт : 384 Кбит/сек
Каналы : 6 каналов
Расположение каналов : Front: L C R, Side: L R, LFE
Частота : 48,0 КГц
Битовая глубина : 16 бит
Метод сжатия : С потерями
Размер потока : 200 Мбайт (13%)
Выравнивание : Разделение по промежуткам
Продолжительность промежутка : 42 мс. (1,00 видеокадр)
Время предзагрузки промежутка : 500 мс.

Скриншоты

Скачать

Скачать торрент! Любовь 911 / Love 911 (Чжон Чжи Хун / Jeong Ji Hoon) [2012, Корея Южная, драма, мелодрама, комедия, HDRip] DVO

Как скачивать? · Что такое торрент? · Рейтинг и ограничения

Сайт не распространяет и не хранит электронные версии произведений, а лишь предоставляет доступ к создаваемому пользователями каталогу ссылок на торрент-файлы, которые содержат только списки хеш-сумм

[Профиль] [ЛС]
Показать сообщения:    
Ответить на тему

Текущее время: Сегодня 05:20

Часовой пояс: GMT + 4



Вы не можете начинать темы
Вы не можете отвечать на сообщения
Вы не можете редактировать свои сообщения
Вы не можете удалять свои сообщения
Вы не можете голосовать в опросах
Вы не можете прикреплять файлы к сообщениям
Вы не можете скачивать файлы