Настоящий Бадшах / Настоящий / Aasal (Саран / Saran) [2010, Индия, Боевик, триллер, DVDRip] Sub Rus

Ответить на тему
 
Автор Сообщение

user ®

Стаж: 12 лет

Сообщений: 15092

Пост Пост: #1 от 26-Авг-2013 16:30

[Цитировать]

Настоящий Бадшах / Настоящий / Aasal
Страна: Индия
Жанр: Боевик, триллер
Год выпуска: 2010
Продолжительность: 02:13:13
Перевод: Субтитры
Cубтитры: русские
Оригинальная аудиодорожка: Тамильский
Режиссер: Саран / Saran
В ролях: Аджит Кумар, Прабху, Самира Редди, Бхавана, Суреш, Сампатх Радж, Раджив Кришна, Прадип Рават, Келли Дорджи
Описание: Владелец «Евразиан Трейдинг Компани» Дживанандам когда-то в молодости совершил ошибку, изменив законной жене. За эту ошибку он расплачивается всю оставшуюся жизнь: приведя в дом плод греховной страсти – Шиву – он настроил против себя двух законных сыновей. Между тем судьбе было угодно, чтобы именно незаконнорожденный Шива был настоящим сыном своего отца: такой же смелый, честный, добрый и бесконечно любящий. А вот Сэм и Викки постоянно норовят пересечь черту закона. После смерти отца, уже не сдерживаемые никем, они ввязываются в нелегальную транспортировку оружия и наркотиков… и переходят дорогу мумбайскому дону Бриджешу Шетти. Мстительный Шетти похищает Викки, и именно Шива бросается к нему на помощь. Но вероломство испорченных сводных братьев безгранично: вырванные из лап смерти, они предают смерти своего спасителя…
Доп. информация: Релиз
Перевод, редакция: Jyoti
Сэмпл: http://multi-up.com/897421
Качество видео: DVDRip
Формат видео: AVI
Видео: XviD build 50, 704x304 (2.32:1), 23.976 fps, 1110 kbps avg
Аудио: Tamil AC3 Dolby Digital, 48 kHz, 3/2 (L,C,R,l,r) + LFE ch, 448.00 kbps avg
Формат субтитров: hardsub (неотключаемые)

MediaInfo

General
Complete name : D:\Nastoyashiy.2010.DVDRip.XviD.BwTorrents.avi
Format : AVI
Format/Info : Audio Video Interleave
File size : 1.46 GiB
Duration : 2h 13mn
Overall bit rate : 1 567 Kbps
Movie name : Nastoyashiy.2010.DVDRip.XviD.BwTorrents
Writing application : VirtualDubMod 1.5.10.3 | www.virtualdub-fr.org || (build 2550/release)
Video
ID : 0
Format : MPEG-4 Visual
Format profile : AdvancedSimple@L5
Format settings, BVOP : Yes
Format settings, QPel : No
Format settings, GMC : No warppoints
Format settings, Matrix : Default (MPEG)
Codec ID : DX50
Codec ID/Hint : DivX 5
Duration : 2h 13mn
Bit rate : 1 110 Kbps
Width : 704 pixels
Height : 304 pixels
Display aspect ratio : 2.35
Frame rate : 23.976 fps
Resolution : 24 bits
Colorimetry : 4:2:0
Scan type : Progressive
Bits/(Pixel*Frame) : 0.216
Stream size : 1.03 GiB (71%)
Writing library : XviD 1.2.1 (UTC 2008-12-04)
Audio
ID : 1
Format : AC-3
Format/Info : Audio Coding 3
Codec ID : 2000
Duration : 2h 13mn
Bit rate mode : Constant
Bit rate : 448 Kbps
Channel(s) : 6 channels
Channel positions : Front: L C R, Surround: L R, LFE
Sampling rate : 48.0 KHz
Stream size : 427 MiB (29%)
Alignment : Split accross interleaves
Interleave, duration : 42 ms (1.00 video frame)
Interleave, preload duration : 500 ms

Скриншот c названием фильма

Скриншоты

Скачать

Скачать торрент! Настоящий Бадшах / Настоящий / Aasal (Саран / Saran) [2010, Индия, Боевик, триллер, DVDRip] Sub Rus

Как скачивать? · Что такое торрент? · Рейтинг и ограничения

Сайт не распространяет и не хранит электронные версии произведений, а лишь предоставляет доступ к создаваемому пользователями каталогу ссылок на торрент-файлы, которые содержат только списки хеш-сумм

[Профиль] [ЛС]
Показать сообщения:    
Ответить на тему

Текущее время: Сегодня 12:34

Часовой пояс: GMT + 4



Вы не можете начинать темы
Вы не можете отвечать на сообщения
Вы не можете редактировать свои сообщения
Вы не можете удалять свои сообщения
Вы не можете голосовать в опросах
Вы не можете прикреплять файлы к сообщениям
Вы не можете скачивать файлы