Суррогаты / Surrogates (Джонатан Мостоу / Jonathan Mostow) [2009, США, Боевик, фантастика, триллер, BDRemux 1080p]

Ответить на тему
 
Автор Сообщение

user ®

Стаж: 7 лет 7 месяцев

Сообщений: 20008

Пост Пост: #1 от 26-Авг-2013 00:45

[Цитировать]

Суррогаты / Surrogates
Год выпуска: 2009
Страна: США
Жанр: Боевик, фантастика, триллер
Продолжительность: 01:28:36
Перевод: Профессиональный (полное дублирование)
Русские субтитры: есть
Режиссер: Джонатан Мостоу
В ролях: Брюс Уиллис, Рада Митчел, Розамунд Пайк, Борис Коджо, Джеймс Джинти, Джеймс Кромуэлл, Винг Рэймс, Джек Ноузуорти, Девин Рэтрей, Майкл Кудиц
Описание: Действие разворачивается в будущем, в 2057 году, — когда люди практически перестанут общаться между собой и полностью возложат эту функцию на плечи роботов-заменителей. Они сильнее, моложе, привлекательнее своих обладателей и даже могут быть другого пола. Но находится террорист, начинающий уничтожать идеальных андроидов. Полицейскому Харви Гриру предстоит узнать, какие причины движут злоумышленником, лишающим людей их марионеток, технически и физически совершенных.
Доп. информация:

User Rating: 6.3/10 (22,412 votes)
За русские субтитры большое спасибо Джокеру.
За исходник большое спасибо

Качество: BD Remux
Формат: MKV
Видео кодек: H.264
Аудио кодек: AC3, DTS-HD
Видео: 1920x1080, 25727 kbps, 23.976 fps
Аудио1: Русский AC3 5.1, 48 KHz, 384 kbps
Аудио2: Английский DTS-HD Master Audio 5.1, 48 KHz, 24 bit, 3705 kbps, Lossless (DTS Core: 5.1, 48 KHz, 24bit, 1536 kbps)
Аудио3: Английский AC3 2.0, 48 KHz, 192 kbps (комментарии режиссёра)
Субтитры: Русские (полные), русские (надписи и пр.), английские
Скриншоты:

MediaInfo

General
Complete name : Surrogates.2009.BD.Remux.1080p.h264.Rus.Eng.Commentary.mkv
Format : Matroska
File size : 18.5 GiB
Duration : 1h 28mn
Overall bit rate : 29.9 Mbps
Encoded date : UTC 2010-01-23 12:51:24
Writing application : mkvmerge v3.0.0 ('Hang up your Hang-Ups') built on Dec 12 2009 15:20:35
Writing library : libebml v0.7.9 + libmatroska v0.8.1
Video
ID : 1
Format : AVC
Format/Info : Advanced Video Codec
Format profile : High@L4.1
Format settings, CABAC : Yes
Format settings, ReFrames : 4 frames
Muxing mode : Container profile=Unknown@0.0
Codec ID : V_MPEG4/ISO/AVC
Duration : 1h 28mn
Width : 1 920 pixels
Height : 1 080 pixels
Display aspect ratio : 16:9
Frame rate : 23.976 fps
Resolution : 8 bits
Colorimetry : 4:2:0
Scan type : Progressive
Language : English
Color primaries : BT.709-5, BT.1361, IEC 61966-2-4, SMPTE RP177
Transfer characteristics : BT.709-5, BT.1361
Matrix coefficients : BT.709-5, BT.1361, IEC 61966-2-4 709, SMPTE RP177
Audio #1
ID : 2
Format : AC-3
Format/Info : Audio Coding 3
Codec ID : A_AC3
Duration : 1h 28mn
Bit rate mode : Constant
Bit rate : 384 Kbps
Channel(s) : 6 channels
Channel positions : Front: L C R, Surround: L R, LFE
Sampling rate : 48.0 KHz
Stream size : 243 MiB (1%)
Title : AC3 5.1 384 kbps
Language : Russian
Audio #2
ID : 3
Format : DTS
Format/Info : Digital Theater Systems
Format profile : MA
Codec ID : A_DTS
Duration : 1h 28mn
Bit rate mode : Variable
Channel(s) : 6 channels
Channel positions : Front: L C R, Surround: L R, LFE
Sampling rate : 48.0 KHz
Resolution : 24 bits
Title : DTS-HD Master Audio, 5.1, 3705 kbps, 24 bit, Lossless (1536 kbps core)
Language : English
Audio #3
ID : 4
Format : AC-3
Format/Info : Audio Coding 3
Codec ID : A_AC3
Duration : 1h 28mn
Bit rate mode : Constant
Bit rate : 192 Kbps
Channel(s) : 2 channels
Channel positions : L R
Sampling rate : 48.0 KHz
Stream size : 122 MiB (1%)
Title : Commentary with Director AC3 2.0 192 kbps
Language : English
Text #1
ID : 5
Format : UTF-8
Codec ID : S_TEXT/UTF8
Codec ID/Info : UTF-8 Plain Text
Language : Russian
Text #2
ID : 6
Format : UTF-8
Codec ID : S_TEXT/UTF8
Codec ID/Info : UTF-8 Plain Text
Language : English
Text #3
ID : 7
Format : UTF-8
Codec ID : S_TEXT/UTF8
Codec ID/Info : UTF-8 Plain Text
Title : Tol'ko nadpisi
Language : Russian
Скачать

Скачать торрент!

Как скачивать? · Что такое торрент? · Рейтинг и ограничения

Сайт не распространяет и не хранит электронные версии произведений, а лишь предоставляет доступ к создаваемому пользователями каталогу ссылок на торрент-файлы, которые содержат только списки хеш-сумм

[Профиль] [ЛС]
Показать сообщения:    
Ответить на тему

Текущее время: Сегодня 20:15

Часовой пояс: GMT + 4



Вы не можете начинать темы
Вы не можете отвечать на сообщения
Вы не можете редактировать свои сообщения
Вы не можете удалять свои сообщения
Вы не можете голосовать в опросах
Вы не можете прикреплять файлы к сообщениям
Вы не можете скачивать файлы