Мертвые души / Dead Souls (Колин Тейс / Colin Theys) [2012, США, ужасы, BDRip 720p] DVO (den904, DeadSno) + Original (Eng) + Subs (Eng)

Ответить на тему
 
Автор Сообщение

user ®

Стаж: 7 лет 7 месяцев

Сообщений: 20008

Пост Пост: #1 от 25-Авг-2013 06:40

[Цитировать]

Мертвые души / Dead Souls

-
-Страна: США
Студия: Chiller Films
Жанр: ужасы
Год выпуска: 2012
Продолжительность: 01:32:17--Перевод : Любительский (двухголосый закадровый) den904, DeadSno по переводу Janetta
Cубтитры: английские
Оригинальная аудиодорожка: английский--Режиссер: Колин Тейс / Colin Theys
В ролях: Джесси Джеймс, Магда Апанович, Билл Моусли, Джеральдин Хьюз, Ной Флайсс, Джейден Кейн, Дж.Х. Торранс Даунс, Элизабет Ирен, Kyle Donnery, Бриджет Меган Кларк--Описание: В свой 18-й день рождения Джонни Петри узнает, что унаследовал в штате Мэн ферму, заброшенную на эти 18 лет, с момента страшной гибели его семьи от рук его же отца, местного пастора. Стремясь к переменам, Джонни переезжает, чтобы начать новую жизнь в своем новом жилище. Однако, начав копаться в прошлом, он неожиданно раскрывает ужасные подробности сомнительного учения своего отца. Помимо этого пугающего открытия, он осознает и то, что его опрометчивое возвращение оживило древнее зло, притаившееся в ловушке дома, запустив тем самым зловещий ритуал, унесший жизни членов его семьи.--imdb | kinopoisk | Сэмпл--Тип релиза: BDRip 720p [Dead Souls 2012 720p BluRay DTS x264-TayTO]
Контейнер: MKV
Видео: MPEG-4 AVC / 7087 kbps / 1280x720 / 23,976 fps / 16:9 / High Profile 4.1
Аудио 1: DTS / 5.1 / 48 kHz / 1509 kbps / 16 bits |DVO|
Аудио 2: DTS / 5.1 / 48 kHz / 1509 kbps / 24 bits |original|
Формат субтитров: softsub [SRT]

MediaInfo

Общее
Уникальный идентификатор : 253952528679071251124146879140249418847 (0xBF0D7A5A82D07C4DA1F01C6A1DCB3C5F)
Полное имя : G:\HD\Мертвые души.2012.BDRip.(720p).mkv
Формат : Matroska
Версия формата : Version 2
Размер файла : 6,65 Гбайт
Продолжительность : 1 ч. 32 м.
Общий поток : 10,3 Мбит/сек
Дата кодирования : UTC 2013-08-24 14:50:59
Программа кодирования : mkvmerge v5.8.0 ('No Sleep / Pillow') built on Sep 2 2012 15:37:04
Библиотека кодирования : libebml v1.2.3 + libmatroska v1.3.0
Attachment : Yes
Видео
Идентификатор : 1
Формат : AVC
Формат/Информация : Advanced Video Codec
Профиль формата : High@L4.1
Параметр CABAC формата : Да
Параметр ReFrames формата : 9 кадров
Идентификатор кодека : V_MPEG4/ISO/AVC
Продолжительность : 1 ч. 32 м.
Битрейт : 7087 Кбит/сек
Ширина : 1280 пикселей
Высота : 720 пикселей
Соотношение сторон : 16:9
Режим частоты кадров : Постоянный
Частота кадров : 23,976 кадра/сек
Цветовое пространство : YUV
Субдискретизация насыщенности : 4:2:0
Битовая глубина : 8 бит
Тип развёртки : Прогрессивная
Бит/(Пиксели*Кадры) : 0.321
Размер потока : 4,57 Гбайт (69%)
Заголовок : Dead Souls 2012 720p BluRay DTS x264-TaYTO
Библиотека кодирования : x264 core 135 r2345 f0c1c53
Настройки программы : cabac=1 / ref=9 / deblock=1:-3:-3 / analyse=0x3:0x133 / me=tesa / subme=11 / psy=1 / psy_rd=1.10:0.00 / mixed_ref=1 / me_range=16 / chroma_me=1 / trellis=2 / 8x8dct=1 / cqm=0 / deadzone=21,11 / fast_pskip=0 / chroma_qp_offset=-2 / threads=12 / lookahead_threads=2 / sliced_threads=0 / nr=0 / decimate=1 / interlaced=0 / bluray_compat=0 / constrained_intra=0 / bframes=7 / b_pyramid=2 / b_adapt=2 / b_bias=0 / direct=3 / weightb=1 / open_gop=0 / weightp=2 / keyint=250 / keyint_min=23 / scenecut=40 / intra_refresh=0 / rc=crf / mbtree=0 / crf=16.9 / qcomp=0.75 / qpmin=0 / qpmax=69 / qpstep=4 / ip_ratio=1.40 / pb_ratio=1.30 / aq=1:0.70
Язык : English
Default : Да
Forced : Нет
Коэффициенты матрицы : BT.709
Аудио #1
Идентификатор : 2
Формат : DTS
Формат/Информация : Digital Theater Systems
Режим : 16
Параметр Endianness формата : Big
Идентификатор кодека : A_DTS
Продолжительность : 1 ч. 32 м.
Вид битрейта : Постоянный
Битрейт : 1509 Кбит/сек
Каналы : 6 каналов
Расположение каналов : Front: L C R, Side: L R, LFE
Частота : 48,0 КГц
Битовая глубина : 16 бит
Метод сжатия : С потерями
Размер потока : 996 Мбайт (15%)
Заголовок : den904
Язык : Russian
Default : Да
Forced : Нет
Аудио #2
Идентификатор : 3
Формат : DTS
Формат/Информация : Digital Theater Systems
Режим : 16
Параметр Endianness формата : Big
Идентификатор кодека : A_DTS
Продолжительность : 1 ч. 32 м.
Вид битрейта : Постоянный
Битрейт : 1509 Кбит/сек
Каналы : 6 каналов
Расположение каналов : Front: L C R, Side: L R, LFE
Частота : 48,0 КГц
Битовая глубина : 24 бит
Метод сжатия : С потерями
Размер потока : 996 Мбайт (15%)
Язык : English
Default : Нет
Forced : Нет
Текст
Идентификатор : 4
Формат : UTF-8
Идентификатор кодека : S_TEXT/UTF8
Идентификатор кодека/Информация : UTF-8 Plain Text
Язык : English
Default : Нет
Forced : Нет
Меню
00:00:00.000 : :Chapter 01
00:10:19.619 : :Chapter 02
00:16:50.009 : :Chapter 03
00:21:45.929 : :Chapter 04
00:32:18.353 : :Chapter 05
00:39:46.384 : :Chapter 06
00:48:05.883 : :Chapter 07
00:58:40.934 : :Chapter 08
01:04:18.479 : :Chapter 09
01:10:25.846 : :Chapter 10
01:17:40.656 : :Chapter 11
01:28:25.300 : :Chapter 12
01:29:38.373 : :Chapter 13

Скриншоты


Дополнительно

Релиз доступен благодаря проекту [url=http://***/forum/viewtopic.php?t=4307106]GORESEWAGE![/url]
Дорожка №1 получена наложением чистого голоса на центр декодированного DTS-HD MA.
Скачать

Скачать торрент!

Как скачивать? · Что такое торрент? · Рейтинг и ограничения

Сайт не распространяет и не хранит электронные версии произведений, а лишь предоставляет доступ к создаваемому пользователями каталогу ссылок на торрент-файлы, которые содержат только списки хеш-сумм

[Профиль] [ЛС]
Показать сообщения:    
Ответить на тему

Текущее время: Сегодня 09:51

Часовой пояс: GMT + 4



Вы не можете начинать темы
Вы не можете отвечать на сообщения
Вы не можете редактировать свои сообщения
Вы не можете удалять свои сообщения
Вы не можете голосовать в опросах
Вы не можете прикреплять файлы к сообщениям
Вы не можете скачивать файлы