Атлантида 2: Возвращение Майло / Atlantis: Milo's Return (Виктор Кук / Victor Cook, Тоби Шелтон / Toby Shelton, Тэд Стоунс / Tad Stones) [2003, мультфильм, боевик, комедия, приключения, BDRip] Dub +2xMVO + Eng + subs (Rus Forc, Eng, Eng SDH)

Ответить на тему
 
Автор Сообщение

user ®

Стаж: 12 лет

Сообщений: 15145

Пост Пост: #1 от 25-Авг-2013 03:30

[Цитировать]

Атлантида 2: Возвращение Майло / Atlantis: Milo's Return- Год выпуска: 2003
Выпущено: США
Жанр: мультфильм, боевик, комедия, приключения, семейный
Продолжительность: 01:20:24
Перевод: Профессиональный (полное дублирование)
+ Профессиональный (многоголосый, закадровый) Вариант 1
+ Профессиональный (многоголосый, закадровый) Вариант 2 (отдельно)
+ Оригинальная звуковая дорожка (отдельно)
Субтитры: Русские (форсированные), английские (полные, SDH) (внешние srt*) (спасибо yaroslaigor)-Режиссер: Виктор Кук / Victor Cook, Тоби Шелтон / Toby Shelton, Тэд Стоунс / Tad Stones
Роли озвучивали: Джеймс Арнольд Тейлор, Кри Саммер, Джон Махони, Жаклин Обрадорс, Дон Новелло, Кори Бертон, Фил Моррис, Флоренс Стэнли, Фрэнк Уэлкер, Стив Барр
О фильме: Мийло, Кида и команда смелых исследователей Атлантиды возвращаются в новых приключениях, полных ожидания и действия. В течение первой экспедиции Майло и Кида открыли подводное царство, а так же спасли его и всех его обитателей. Теперь опасность подкралась с поверхности воды и отважным героям придется покинуть Атлантиду…
Релиз:
Автор: kingsize87
Качество: BDRip (источник: / Blu-ray / 1080р)
Формат: AVI
Видео: 704x416 (1.69:1), 23,976 fps, XviD build 65 ~1930 kbps avg, 0.28 bit/pixel
Аудио #1: 48 kHz, AC3 Dolby Digital, 1/0 (С), ~192.00 kbps avg dub
Аудио #2: 48 kHz, AC3 Dolby Digital, 3/2 (L,C,R,l,r) + LFE ch, ~448.00 kbps avg mvo1
Аудио #3: 48 kHz, AC3 Dolby Digital, 3/2 (L,C,R,l,r) + LFE ch, ~448.00 kbps avg mvo2 (отдельно)
Аудио #4: 48 kHz, AC3 Dolby Digital, 3/2 (L,C,R,l,r) + LFE ch, ~448.00 kbps avg eng (отдельно)
Размер: 1486.97 Mb (1/3 DVD-R)- -

Mi


Формат : AVI
Формат/Информация : Audio Video Interleave
Размер файла : 1,45 Гбайт
Продолжительность : 1 ч. 20 м.
Общий поток : 2585 Кбит/сек
Название фильма : Атлантида 2: Возвращение Майло / Atlantis: Milo's Return (2003) BDRip
Режиссёр : kingsize87
Программа кодирования : VirtualDubMod 1.5.10.2 (build 2540/release)
Правообладатель : HQCLUB
Примечание : 25.08.2013
Видео
Идентификатор : 0
Формат : MPEG-4 Visual
Профиль формата : Advanced Simple@L5
Параметр BVOP формата : 1
Параметр QPel формата : Нет
Параметр GMC формата : Без точки перехода
Параметр матрицы формата : Выборочная
Идентификатор кодека : XVID
Идентификатор кодека/Подсказка : XviD
Продолжительность : 1 ч. 20 м.
Битрейт : 1931 Кбит/сек
Ширина : 704 пикселя
Высота : 416 пикселей
Соотношение сторон : 1,692
Частота кадров : 23,976 кадра/сек
Цветовое пространство : YUV
Субдискретизация насыщенности : 4:2:0
Битовая глубина : 8 бит
Тип развёртки : Прогрессивная
Метод сжатия : С потерями
Бит/(Пиксели*Кадры) : 0.275
Размер потока : 1,08 Гбайт (75%)
Библиотека кодирования : XviD 65
Аудио #1
Идентификатор : 1
Формат : AC-3
Формат/Информация : Audio Coding 3
Расширение режима : CM (complete main)
Параметр Endianness формата : Big
Идентификатор кодека : 2000
Продолжительность : 1 ч. 20 м.
Вид битрейта : Постоянный
Битрейт : 192 Кбит/сек
Каналы : 1 канал
Расположение каналов : Front: C
Частота : 48,0 КГц
Битовая глубина : 16 бит
Метод сжатия : С потерями
Размер потока : 110 Мбайт (7%)
Выравнивание : Разделение по промежуткам
Продолжительность промежутка : 42 мс. (1,00 видеокадр)
Время предзагрузки промежутка : 500 мс.
Аудио #2
Идентификатор : 2
Формат : AC-3
Формат/Информация : Audio Coding 3
Расширение режима : CM (complete main)
Параметр Endianness формата : Big
Идентификатор кодека : 2000
Продолжительность : 1 ч. 20 м.
Вид битрейта : Постоянный
Битрейт : 448 Кбит/сек
Каналы : 6 каналов
Расположение каналов : Front: L C R, Side: L R, LFE
Частота : 48,0 КГц
Битовая глубина : 16 бит
Метод сжатия : С потерями
Размер потока : 258 Мбайт (17%)
Выравнивание : Разделение по промежуткам
Продолжительность промежутка : 42 мс. (1,00 видеокадр)
Время предзагрузки промежутка : 500 мс.
-
Скачать

Скачать торрент! Атлантида 2: Возвращение Майло / Atlantis: Milo's Return (Виктор Кук / Victor Cook, Тоби Шелтон / Toby Shelton, Тэд Стоунс / Tad Stones) [2003, мультфильм, боевик, комедия, приключения, BDRip] Dub +2xMVO + Eng + subs (Rus Forc, Eng, Eng SDH)

Как скачивать? · Что такое торрент? · Рейтинг и ограничения

Сайт не распространяет и не хранит электронные версии произведений, а лишь предоставляет доступ к создаваемому пользователями каталогу ссылок на торрент-файлы, которые содержат только списки хеш-сумм

[Профиль] [ЛС]
Показать сообщения:    
Ответить на тему

Текущее время: Сегодня 12:16

Часовой пояс: GMT + 4



Вы не можете начинать темы
Вы не можете отвечать на сообщения
Вы не можете редактировать свои сообщения
Вы не можете удалять свои сообщения
Вы не можете голосовать в опросах
Вы не можете прикреплять файлы к сообщениям
Вы не можете скачивать файлы