Мне не больно (Алексей Балабанов) [2006, драма, мелодрама, DVDRip]

Ответить на тему
 
Автор Сообщение

user ®

Стаж: 7 лет 7 месяцев

Сообщений: 20008

Пост Пост: #1 от 24-Авг-2013 11:45

[Цитировать]

Мне не больно
Жанр: драма, мелодрама
Год выпуска: 2006
Продолжительность: 01:40:33-Режиссёр: Алексей Балабанов
В ролях: Рената Литвинова, Алена Баркова, Александр Яценко, Дмитрий Дюжев, Никита Михалков, Инга Стрелкова-Оболдина, Валентин Кузнецов, Сергей Маковецкий, Александр Андреев, Марина Солопченко-Описание: Трое друзей стоят на пороге шикарного дома в центре большого города. Они молоды, полны сил и энергии, у них есть талант, сноровка, жажда жизни и… — в общем, у них есть все, кроме одного. Кроме денег. Впрочем, за этим они сюда и пришли — предложить услуги дизайнера хозяйке дома. Натэлла Антоновна тоже молода, но, кажется, жизнь ей уже успела наскучить.
По крайней мере, так было до встречи с Мишей. Он помог ей снова влюбиться в жизнь, а она нашла ему и его друзьям интересную работу. Богатые клиенты, дорогие обеды, огромные гонорары — друзья об этом и не мечтали. И самое главное — она любит его! Но при этом скрывает что-то очень важное, что неизбежно повлияет на их будущее.-Доп. информация: премьера (мир) 19 марта 2007

-Качество видео: DVDRip
Формат видео: AVI
Видео: XviD, 1873 kb/s, 720x384 (1,85:1), 23,9 fps
Аудио: MP3, 192 kb/s (2 ch), 48,0 KHz

MediaInfo

Общее
Полное имя : E:\Mne.ne.bolno.2006.DVDRip.avi
Формат : AVI
Формат/Информация : Audio Video Interleave
Размер файла : 1,46 Гбайт
Продолжительность : 1 ч. 40 м.
Общий поток : 2074 Кбит/сек
Программа кодирования : VirtualDubMod 1.5.10.2 (build 2540/release)
Библиотека кодирования : VirtualDubMod build 2540/release
Видео
Идентификатор : 0
Формат : MPEG-4 Visual
Профиль формата : Advanced Simple@L5
Параметр BVOP формата : 1
Параметр QPel формата : Нет
Параметр GMC формата : Без точки перехода
Параметр матрицы формата : Default (MPEG)
Идентификатор кодека : XVID
Идентификатор кодека/Подсказка : XviD
Продолжительность : 1 ч. 40 м.
Битрейт : 1873 Кбит/сек
Ширина : 720 пикселей
Высота : 384 пикселя
Соотношение сторон : 1,85:1
Частота кадров : 23,976 кадра/сек
Цветовое пространство : YUV
Субдискретизация насыщенности : 4:2:0
Битовая глубина : 8 бит
Тип развёртки : Прогрессивная
Метод сжатия : С потерями
Бит/(Пиксели*Кадры) : 0.283
Размер потока : 1,32 Гбайт (90%)
Библиотека кодирования : XviD 1.2.1 (UTC 2008-12-04)
Аудио
Идентификатор : 1
Формат : MPEG Audio
Версия формата : Version 1
Профиль формата : Layer 3
Идентификатор кодека : 55
Идентификатор кодека/Подсказка : MP3
Продолжительность : 1 ч. 40 м.
Вид битрейта : Постоянный
Битрейт : 192 Кбит/сек
Каналы : 2 канала
Частота : 48,0 КГц
Метод сжатия : С потерями
Размер потока : 138 Мбайт (9%)
Выравнивание : Соединение по промежуткам
Продолжительность промежутка : 42 мс. (1,00 видеокадр)
Время предзагрузки промежутка : 504 мс.
Библиотека кодирования : LAME3.98r
Настройки программы : -m s -V 4 -q 2 -lowpass 18.6 -b 192

Скриншоты

Скачать

Скачать торрент!

Как скачивать? · Что такое торрент? · Рейтинг и ограничения

Сайт не распространяет и не хранит электронные версии произведений, а лишь предоставляет доступ к создаваемому пользователями каталогу ссылок на торрент-файлы, которые содержат только списки хеш-сумм

[Профиль] [ЛС]
Показать сообщения:    
Ответить на тему

Текущее время: Сегодня 04:20

Часовой пояс: GMT + 4



Вы не можете начинать темы
Вы не можете отвечать на сообщения
Вы не можете редактировать свои сообщения
Вы не можете удалять свои сообщения
Вы не можете голосовать в опросах
Вы не можете прикреплять файлы к сообщениям
Вы не можете скачивать файлы