Раны войны / Forbidden Ground (Йохан Эрл / Johan Earl, Адриан Пауэрс / Adrian Powers) [2013, Австралия, военная драма, DVDRip] Sub Rus + Original Eng

Ответить на тему
 
Автор Сообщение

user ®

Стаж: 7 лет 7 месяцев

Сообщений: 20008

Пост Пост: #1 от 21-Авг-2013 18:05

[Цитировать]

Раны войны / Forbidden Ground
Страна: Австралия
Жанр: военная драма
Год выпуска: 2013
Продолжительность: 01:34:56
Перевод: Субтитры А. Кедров
Cубтитры: русские
Оригинальная аудиодорожка: английский
Режиссер: Йохан Эрл / Johan Earl, Адриан Пауэрс / Adrian Powers
В ролях: Йохан Эрл, Тим Пакок, Мартин Коппинг, Денай Грейси, Сара Моуби, Бэрри Куин
Описание:
Франция, 1916 год. Трое британских солдат оказываются на нейтральной полосе после неудачной атаки на немецкие окопы.

Сэмпл: http://multi-up.com/895877
Качество видео: DVDRip
Формат видео: AVI
Видео: Xvid 720x304 25.00fps 800Kbps
Аудио: Dolby AC3 48000Hz stereo 224Kbps
Формат субтитров: softsub (SRT)

MediaInfo

General
Complete name : D:\TORRENTS\Раны войны\Раны войны.avi
Format : AVI
Format/Info : Audio Video Interleave
File size : 702 MiB
Duration : 1h 34mn
Overall bit rate : 1 034 Kbps
Video
ID : 0
Format : MPEG-4 Visual
Format profile : Advanced Simple@L5
Format settings, BVOP : 1
Format settings, QPel : No
Format settings, GMC : No warppoints
Format settings, Matrix : Custom
Codec ID : XVID
Codec ID/Hint : XviD
Duration : 1h 34mn
Bit rate : 800 Kbps
Width : 720 pixels
Height : 304 pixels
Display aspect ratio : 2.35:1
Frame rate : 25.000 fps
Color space : YUV
Chroma subsampling : 4:2:0
Bit depth : 8 bits
Scan type : Progressive
Compression mode : Lossy
Bits/(Pixel*Frame) : 0.146
Stream size : 543 MiB (77%)
Writing library : XviD 1.2.1 (UTC 2008-12-04)
Audio
ID : 1
Format : AC-3
Format/Info : Audio Coding 3
Mode extension : CM (complete main)
Format settings, Endianness : Big
Codec ID : 2000
Duration : 1h 34mn
Source duration : 1h 34mn
Bit rate mode : Constant
Bit rate : 224 Kbps
Channel(s) : 2 channels
Channel positions : Front: L R
Sampling rate : 48.0 KHz
Bit depth : 16 bits
Compression mode : Lossy
Stream size : 152 MiB (22%)
Alignment : Aligned on interleaves
Interleave, duration : 40 ms (1.00 video frame)

Скриншот c названием фильма

Скриншоты

Скачать

Скачать торрент!

Как скачивать? · Что такое торрент? · Рейтинг и ограничения

Сайт не распространяет и не хранит электронные версии произведений, а лишь предоставляет доступ к создаваемому пользователями каталогу ссылок на торрент-файлы, которые содержат только списки хеш-сумм

[Профиль] [ЛС]
Показать сообщения:    
Ответить на тему

Текущее время: Сегодня 10:05

Часовой пояс: GMT + 4



Вы не можете начинать темы
Вы не можете отвечать на сообщения
Вы не можете редактировать свои сообщения
Вы не можете удалять свои сообщения
Вы не можете голосовать в опросах
Вы не можете прикреплять файлы к сообщениям
Вы не можете скачивать файлы