Мой папа лётчик (Александр Итыгилов) [2013, Россия, Украина, мелодрама, HDTV 1080i]

Ответить на тему
 
Автор Сообщение

user ®

Стаж: 7 лет 7 месяцев

Сообщений: 20008

Пост Пост: #1 от 21-Авг-2013 14:55

[Цитировать]

Мой папа лётчик. ( Эфир от 11.08.2013 ) Страна: Россия, Украина
Жанр: мелодрама
Год выпуска: 2013
Продолжительность: 01:29:35
Перевод: Не требуется
Cубтитры: нет
Режиссер: Александр Итыгилов
В ролях: Марина Коняшкина, Олег Харитонов, Сергей Комаров, Иван Шмаков, Елизавета Майская, Леся Самаева
Описание:
История о том, как мальчик Валька нашел себе папу-летчика, а маме - любящего мужа.
Люся Ермакова работает официанткой в офицерской столовой летного гарнизона. Ее сын Валька мечтает, чтобы у него был папа, и обязательно летчик. Подполковник Ивченко требует от Люси благосклонности, ведь это он помог ей с работой, но женщина избегает его. Ей нравится майор Ловцов. Однажды Валька убегает на аэродром и пропадает. На поиски ребенка поднимают весь гарнизон…

Сэмпл: http://multi-up.com/895017
Качество: HDTV 1080i
Контейнер: TS
Видео: AVC/H.264, 1920x1080 (16:9), 10,1 Мбит/сек, 25.000 fps
Аудио: Mp2, 48000 Hz, 192 Кбит/сек, 2 ch

MediaInfo

Видео
Идентификатор : 306 (0x132)
Идентификатор меню : 1 (0x1)
Формат : AVC
Формат/Информация : Advanced Video Codec
Профиль формата : High@L4.0
Параметр CABAC формата : Да
Параметр ReFrames формата : 3 кадра
Идентификатор кодека : 27
Продолжительность : 1 ч. 29 м.
Битрейт : 10,1 Мбит/сек
Ширина : 1920 пикселей
Высота : 1080 пикселей
Соотношение сторон : 16:9
Частота кадров : 25,000 кадров/сек
Стандарт вещания : Component
Цветовое пространство : YUV
Субдискретизация насыщенности : 4:2:0
Битовая глубина : 8 бит
Тип развёртки : Чересстрочная
Порядок развёртки : Верхнее поле первое
Бит/(Пиксели*Кадры) : 0.195
Размер потока : 6,32 Гбайт (93%)
Основные цвета : BT.709
Характеристики трансфера : BT.709
Коэффициенты матрицы : BT.709
Аудио
Идентификатор : 406 (0x196)
Идентификатор меню : 1 (0x1)
Формат : MPEG Audio
Версия формата : Version 1
Профиль формата : Layer 2
Идентификатор кодека : 3
Продолжительность : 1 ч. 29 м.
Вид битрейта : Постоянный
Битрейт : 192 Кбит/сек
Каналы : 2 канала
Частота : 48,0 КГц
Метод сжатия : С потерями
Размер потока : 123 Мбайт (2%)

Скриншот c названием фильма

Скриншоты

Скачать

Скачать торрент!

Как скачивать? · Что такое торрент? · Рейтинг и ограничения

Сайт не распространяет и не хранит электронные версии произведений, а лишь предоставляет доступ к создаваемому пользователями каталогу ссылок на торрент-файлы, которые содержат только списки хеш-сумм

[Профиль] [ЛС]
Показать сообщения:    
Ответить на тему

Текущее время: Сегодня 14:45

Часовой пояс: GMT + 4



Вы не можете начинать темы
Вы не можете отвечать на сообщения
Вы не можете редактировать свои сообщения
Вы не можете удалять свои сообщения
Вы не можете голосовать в опросах
Вы не можете прикреплять файлы к сообщениям
Вы не можете скачивать файлы