Грейстоук: Легенда о Тарзане, повелителе обезьян / Greystoke: The Legend of Tarzan, Lord of the Apes (Хью Хадсон / Hugh Hudson) [1984, США, драма, мелодрама, приключения, BDRip 1080p] Dub (Варус-Видео) + MVO + Original Eng

Ответить на тему
 
Автор Сообщение

user ®

Стаж: 7 лет 7 месяцев

Сообщений: 20008

Пост Пост: #1 от 21-Авг-2013 11:45

[Цитировать]

Грейстоук: Легенда о Тарзане, повелителе обезьян / Greystoke: The Legend of Tarzan, Lord of the Apes
Страна: США
Студия: Warner Bros
Жанр: драма, мелодрама, приключения
Год выпуска: 1984
Продолжительность: 02:17:00
Перевод: Профессиональный (дублированный) Варус-Видео
Перевод 2: Профессиональный (многоголосый закадровый)
Cубтитры: English (2 вида)
Оригинальная аудиодорожка: английский
Режиссер: Хью Хадсон / Hugh Hudson
В ролях: Кристофер Ламберт, Энди МакДауэлл, Ральф Ричардсон, Иэн Холм, Джеймс Фокс, Шерил Кэмпбелл, Иэн Чарлсон, Найджел Девенпорт, Николас Фэррел, Пол Джефри
Описание: Мальчик, выросший среди диких обезьян, возвращается к людям, чтобы заявить свои права на жизнь среди людей. Удивительная сага о Тарзане, созданная писателем Эдгаром Райсом Берроузом, - это волнующий рассказ о столкновении двух миров, дикого и цивилизованного.
Сэмпл
Автор рипа:REIKO1992
Тип релиза: BDRip 1080p
Контейнер: MKV
Видео: MPEG-4 AVC Video, 11100 Кбит/с, 1920x800 (2,40:1),23.976 кадра / сек
Аудио: Russian, 192 Кбит/сек, 48.0 КГц, 2 каналов, 16 бит, AC3 |Дубляж Варус-Видео|
Аудио 2: Russian, 192 Кбит/сек, 48.0 КГц, 2 каналов, 16 бит, AC3 |Многоголосый закадровый|
Аудио 3: English, 1509 Кбит/сек, 48.0 КГц, 6 каналов, 16 бит, DTS

MediaInfo

Общее
Уникальный идентификатор : 247390830717949048496305552540371347136 (0xBA1DBDAA9DDB781E91A77A3BD1CD66C0)
Полное имя : C:\фильмы\Greystoke.The.Legend.of.Tarzan.1984.1080p.BluRay.X264.mkv
Формат : Matroska
Версия формата : Version 2
Размер файла : 12,4 Гбайт
Продолжительность : 2 ч. 17 м.
Общий поток : 13,0 Мбит/сек
Дата кодирования : UTC 2013-08-20 06:53:17
Программа кодирования : mkvmerge v5.7.0 ('The Whirlwind') built on Jul 29 2012 15:12:35
Библиотека кодирования : libebml v1.2.3 + libmatroska v1.3.0
Видео
Идентификатор : 1
Формат : AVC
Формат/Информация : Advanced Video Codec
Профиль формата : High@L4.1
Параметр CABAC формата : Да
Параметр ReFrames формата : 5 кадров
Идентификатор кодека : V_MPEG4/ISO/AVC
Продолжительность : 2 ч. 17 м.
Битрейт : 11,1 Мбит/сек
Ширина : 1920 пикселей
Высота : 800 пикселей
Соотношение сторон : 2,40:1
Режим частоты кадров : Постоянный
Частота кадров : 23,976 кадра/сек
Цветовое пространство : YUV
Субдискретизация насыщенности : 4:2:0
Битовая глубина : 8 бит
Тип развёртки : Прогрессивная
Бит/(Пиксели*Кадры) : 0.300
Размер потока : 10,3 Гбайт (83%)
Библиотека кодирования : x264 core 135 r2345kMod f0c1c53
Настройки программы : cabac=1 / ref=5 / deblock=1:-3:-3 / analyse=0x3:0x113 / me=umh / subme=8 / psy=1 / fade_compensate=0.00 / psy_rd=1.00:0.00 / mixed_ref=1 / me_range=16 / chroma_me=1 / trellis=1 / 8x8dct=1 / cqm=0 / deadzone=21,11 / fast_pskip=1 / chroma_qp_offset=-2 / threads=18 / lookahead_threads=3 / sliced_threads=0 / nr=0 / decimate=1 / interlaced=0 / bluray_compat=0 / constrained_intra=0 / bframes=3 / b_pyramid=2 / b_adapt=2 / b_bias=0 / direct=3 / weightb=1 / open_gop=0 / weightp=2 / keyint=240 / keyint_min=24 / scenecut=40 / intra_refresh=0 / rc_lookahead=50 / rc=2pass / mbtree=1 / bitrate=11055 / ratetol=1.0 / qcomp=0.60 / qpmin=0 / qpmax=69 / qpstep=4 / cplxblur=20.0 / qblur=0.5 / ip_ratio=1.40 / aq=1:1.00
Язык : English
Default : Да
Forced : Нет
Аудио #1
Идентификатор : 2
Формат : AC-3
Формат/Информация : Audio Coding 3
Профиль формата : Dolby Digital
Расширение режима : CM (complete main)
Параметр Endianness формата : Big
Идентификатор кодека : A_AC3
Продолжительность : 2 ч. 17 м.
Вид битрейта : Постоянный
Битрейт : 192 Кбит/сек
Каналы : 2 канала
Расположение каналов : Front: L R
Частота : 48,0 КГц
Битовая глубина : 16 бит
Метод сжатия : С потерями
Размер потока : 188 Мбайт (1%)
Заголовок : |Дубляж Варус-Видео|
Язык : Russian
Default : Да
Forced : Нет
Аудио #2
Идентификатор : 3
Формат : AC-3
Формат/Информация : Audio Coding 3
Профиль формата : Dolby Digital
Расширение режима : CM (complete main)
Параметр Endianness формата : Big
Идентификатор кодека : A_AC3
Продолжительность : 2 ч. 17 м.
Вид битрейта : Постоянный
Битрейт : 192 Кбит/сек
Каналы : 2 канала
Расположение каналов : Front: L R
Частота : 48,0 КГц
Битовая глубина : 16 бит
Метод сжатия : С потерями
Размер потока : 188 Мбайт (1%)
Заголовок : |Многоголосый закадровый|
Язык : Russian
Default : Нет
Forced : Нет
Аудио #3
Идентификатор : 4
Формат : DTS
Формат/Информация : Digital Theater Systems
Режим : 16
Параметр Endianness формата : Big
Идентификатор кодека : A_DTS
Продолжительность : 2 ч. 17 м.
Вид битрейта : Постоянный
Битрейт : 1509 Кбит/сек
Каналы : 6 каналов
Расположение каналов : Front: L C R, Side: L R, LFE
Частота : 48,0 КГц
Битовая глубина : 24 бит
Метод сжатия : С потерями
Размер потока : 1,44 Гбайт (12%)
Язык : English
Default : Нет
Forced : Нет
Текст #1
Идентификатор : 5
Формат : UTF-8
Идентификатор кодека : S_TEXT/UTF8
Идентификатор кодека/Информация : UTF-8 Plain Text
Заголовок : SDH
Язык : English
Default : Нет
Forced : Нет
Текст #2
Идентификатор : 6
Формат : UTF-8
Идентификатор кодека : S_TEXT/UTF8
Идентификатор кодека/Информация : UTF-8 Plain Text
Язык : English
Default : Нет
Forced : Нет
Меню
00:00:00.000 : en:00:00:00.000
00:01:41.101 : en:00:01:41.101
00:03:37.926 : en:00:03:37.926
00:05:52.185 : en:00:05:52.185
00:08:40.478 : en:00:08:40.478
00:11:14.591 : en:00:11:14.591
00:16:04.839 : en:00:16:04.839
00:18:53.007 : en:00:18:53.007
00:22:55.874 : en:00:22:55.874
00:27:50.460 : en:00:27:50.460
00:32:18.854 : en:00:32:18.854
00:37:13.648 : en:00:37:13.648
00:41:54.929 : en:00:41:54.929
00:44:56.110 : en:00:44:56.110
00:49:41.312 : en:00:49:41.312
00:53:28.872 : en:00:53:28.872
00:55:54.977 : en:00:55:54.977
00:59:53.882 : en:00:59:53.882
01:04:40.502 : en:01:04:40.502
01:09:12.065 : en:01:09:12.065
01:13:34.076 : en:01:13:34.076
01:17:00.908 : en:01:17:00.908
01:20:31.410 : en:01:20:31.410
01:24:52.337 : en:01:24:52.337
01:28:47.572 : en:01:28:47.572
01:31:58.388 : en:01:31:58.388
01:34:52.020 : en:01:34:52.020
01:36:04.342 : en:01:36:04.342
01:38:31.906 : en:01:38:31.906
01:41:44.932 : en:01:41:44.932
01:46:33.262 : en:01:46:33.262
01:52:07.638 : en:01:52:07.638
01:55:25.919 : en:01:55:25.919
01:58:10.917 : en:01:58:10.917
02:05:33.735 : en:02:05:33.735
02:10:56.599 : en:02:10:56.599
02:13:18.657 : en:02:13:18.657

Скриншоты

Скачать

Скачать торрент!

Как скачивать? · Что такое торрент? · Рейтинг и ограничения

Сайт не распространяет и не хранит электронные версии произведений, а лишь предоставляет доступ к создаваемому пользователями каталогу ссылок на торрент-файлы, которые содержат только списки хеш-сумм

[Профиль] [ЛС]
Показать сообщения:    
Ответить на тему

Текущее время: Сегодня 19:38

Часовой пояс: GMT + 4



Вы не можете начинать темы
Вы не можете отвечать на сообщения
Вы не можете редактировать свои сообщения
Вы не можете удалять свои сообщения
Вы не можете голосовать в опросах
Вы не можете прикреплять файлы к сообщениям
Вы не можете скачивать файлы