Бой тигра с драконом / Match of Tiger and Dragon / Bamboo Brotherhood / The Dragon and Tiger / Tian long di hu (Ю Гуаньжэнь / Yu Kuan-Jen) [1974, Тайвань, боевые искусства, VHSRip] AVO (Алексей Михалёв)

Ответить на тему
 
Автор Сообщение

user ®

Стаж: 11 лет

Сообщений: 15151

Пост Пост: #1 от 20-Авг-2013 20:00

[Цитировать]

Бой тигра с драконом / Match of Tiger and Dragon / Bamboo Brotherhood / The Dragon and Tiger / Tian long di hu
Страна: Тайвань
Жанр: боевые искусства
Год выпуска: 1974
Продолжительность: 01:31:36
Перевод: Авторский (одноголосый закадровый) Алексей Михалёв
Cубтитры: датские (неотключаемые)
Режиссер: Ю Гуаньжэнь / Yu Kuan-Jen
В ролях: Ю Тяньлун, Дэн Мэйфан, Лэй Мин, Сюэ Хань, Лю Лили, Су Цзиньлун, Кэ Юминь, Чэнь Цзю, Юй Сунчжао, Хэ Вэйсюн
Описание: Ко Тянь Люн возвращается в родной город, чтобы отомстить за убийство своих родителей, задача, к которой он готовил себя 20 лет, изучая боевые искусства. Но когда он устранил подручных самого главного врага, он может заколебаться в своём стремлении устранить босса, потому что он влюбляется в дочь своего заклятого врага. Сможет ли он теперь отомстить за убийство его родителей сполна?
Благодарность: За синхронизацию озвучки благодарность выражается Виктору Береговых (Jet).
Сэмпл: http://multi-up.com/895570
Качество видео: VHSRip
Формат видео: AVI
Видео: 640x416 (1.54:1), 23.976 fps, XviD build 50 ~1999 kbps avg, 0.31 bit/pixel
Аудио: 48 kHz, MPEG Layer 3, 2 ch, ~128.00 kbps avg

MediaInfo

Format : AVI
Format/Info : Audio Video Interleave
File size : 1,37 Гбайт
Duration : 1 ч. 31 м.
Overall bit rate : 2137 Кбит/сек
Writing application : VirtualDubMod 1.5.10.3 | www.virtualdub-fr.org || (build 2550/release)
Writing library : VirtualDubMod build 2550/release
Видео
ID : 0
Format : MPEG-4 Visual
Format profile : Advanced Simple@L5
Format settings, BVOP : 2
Format settings, QPel : Нет
Format settings, GMC : Без точки перехода
Format settings, Matrix : Default (MPEG)
Codec ID : XVID
Codec ID/Hint : XviD
Duration : 1 ч. 31 м.
Bit rate : 2000 Кбит/сек
Width : 640 пикселей
Height : 416 пикселей
Display aspect ratio : 3:2
Frame rate : 23,976 кадра/сек
Color space : YUV
Chroma subsampling : 4:2:0
Bit depth : 8 бит
Scan type : Прогрессивная
Compression mode : С потерями
Bits/(Pixel*Frame) : 0.313
Stream size : 1,28 Гбайт (94%)
Writing library : XviD 1.2.1 (UTC 2008-12-04)
Аудио
ID : 1
Format : MPEG Audio
Format version : Version 1
Format profile : Layer 3
Codec ID : 55
Codec ID/Hint : MP3
Duration : 1 ч. 31 м.
Bit rate mode : Постоянный
Bit rate : 128 Кбит/сек
Channel(s) : 2 канала
Sampling rate : 48,0 КГц
Compression mode : С потерями
Stream size : 83,9 Мбайт (6%)
Alignment : Соединение по промежуткам
Interleave, duration : 42 мс. (1,00 видеокадр)
Interleave, preload duration : 504 мс.
Writing library : LAME3.99r
Encoding settings : -m s -V 4 -q 2 -lowpass 17 -b 128

Скриншот c названием фильма

Скриншоты

Скачать

Скачать торрент! Бой тигра с драконом / Match of Tiger and Dragon / Bamboo Brotherhood / The Dragon and Tiger / Tian long di hu (Ю Гуаньжэнь / Yu Kuan-Jen) [1974, Тайвань, боевые искусства, VHSRip] AVO (Алексей Михалёв)

Как скачивать? · Что такое торрент? · Рейтинг и ограничения

Сайт не распространяет и не хранит электронные версии произведений, а лишь предоставляет доступ к создаваемому пользователями каталогу ссылок на торрент-файлы, которые содержат только списки хеш-сумм

[Профиль] [ЛС]
Показать сообщения:    
Ответить на тему

Текущее время: Сегодня 19:14

Часовой пояс: GMT + 4



Вы не можете начинать темы
Вы не можете отвечать на сообщения
Вы не можете редактировать свои сообщения
Вы не можете удалять свои сообщения
Вы не можете голосовать в опросах
Вы не можете прикреплять файлы к сообщениям
Вы не можете скачивать файлы