Мастер тай-чи / Мастер тай-цзи / Man of Tai Chi (Киану Ривз / Keanu Reeves) [2013, Китай, Боевик, HDTVRip] VO + Sub Eng

Ответить на тему
 
Автор Сообщение

user ®

Стаж: 11 лет

Сообщений: 15151

Пост Пост: #1 от 20-Авг-2013 16:50

[Цитировать]

Мастер тай-чи / Мастер тай-цзи / Man of Tai Chi Страна: Китай
Жанр: Боевик
Год выпуска: 2013
Продолжительность: 01:36:40
Перевод: Одноголосый закадровый
Cубтитры: Китайский/Английский(хардсаб)
Режиссер: Киану Ривз / Keanu Reeves
В ролях: Киану Ривз, Ико Ювайс, Тайгер Ху Чен, Карен Мок, Джереми Меринас, Стивен Дасс, Майкл Чан, Брахим Ачаббаке, Хелен Леклерк, Оушен Хоу и др..
Описание: Пекин. Амбициозный юноша Чэнь Линь-Ху по кличке «Тигр» подрабатывает скромным курьером, но после работы он превращается в молодую звезду боевых искусств, постепенно оттачивая свои навыки, следуя традициям Тай-чи Лин Кун. Обучившись размеренным и мирным движениям из Тай-чи, он приспособил их для бойцовских соревнований.
Донака Марк, скрываясь от гонконгской полиции, попадает в другой столичный мегаполис, где царит неразбериха и хаос, и открывает там подпольный бойцовский клуб, в котором реальные деньги можно заработать, побеждая противников в поединках без правил, транслируемых в прямом эфире богатым клиентам.
Подыскивая новую «звезду», Донака пытается приманить Тигра обещанием лёгкого заработка. Вхождение в этот мир выявляет самую тёмную сторону Чэнь Линь-Ху, но ему необходимы наличные. Его навыки помогают ему на ринге, но сможет ли он, сражаясь, сохранить в себе чистоту и добропорядочность? Релиз группы:
Доп. информация: За перевод и предоставленные субтитры огромное спасибо Moritsugu
Озвучивание Ворон
Примечание: Качаем СЭМПЛ! прежде чем скачивать фильм!
Качество видео: HDTVRip
Формат видео: AVI
Исходник: Man.of.Tai.Chi.2013.720p.Webrip.x264.AC3-FooKaS
Видео: 720x304 (2.37:1), 25 fps, XviD build 50 ~1684 kbps avg, 0.31 bit/pixe
Аудио: 48 kHz, AC3 Dolby Digital, 2/0 (L,R) ch, ~192 kbps (Русский)
Аудио 2: 48 kHz, AC3 Dolby Digital, 2/0 (L,R) ch, ~192 kbps (Китайский/Английский)

MediaInfo

Формат : AVI
Формат/Информация : Audio Video Interleave
Размер файла : 1,47 Гбайт
Продолжительность : 1 ч. 40 м.
Общий поток : 2084 Кбит/сек
Программа кодирования : VirtualDubMod 1.5.10.2 (build 2542/release)
Библиотека кодирования : VirtualDubMod build 2542/release
Видео
Идентификатор : 0
Формат : MPEG-4 Visual
Профиль формата : Advanced Simple@L5
Параметр BVOP формата : 2
Параметр QPel формата : Нет
Параметр GMC формата : Без точки перехода
Параметр матрицы формата : Default (MPEG)
Идентификатор кодека : XVID
Идентификатор кодека/Подсказка : XviD
Продолжительность : 1 ч. 40 м.
Битрейт : 1685 Кбит/сек
Ширина : 720 пикселей
Высота : 304 пикселя
Соотношение сторон : 2,35:1
Частота кадров : 25,000 кадров/сек
Цветовое пространство : YUV
Субдискретизация насыщенности : 4:2:0
Битовая глубина : 8 бит
Тип развёртки : Прогрессивная
Метод сжатия : С потерями
Бит/(Пиксели*Кадры) : 0.308
Размер потока : 1,19 Гбайт (81%)
Библиотека кодирования : XviD 1.2.1 (UTC 2008-12-04)
Аудио #1
Идентификатор : 1
Формат : AC-3
Формат/Информация : Audio Coding 3
Идентификатор кодека : 2000
Продолжительность : 1 ч. 40 м.
Вид битрейта : Постоянный
Битрейт : 192 Кбит/сек
Каналы : 2 канала
Частота : 44,1 КГц
Метод сжатия : С потерями
Размер потока : 139 Мбайт (9%)
Выравнивание : Разделение по промежуткам
Продолжительность промежутка : 40 мс. (1,00 видеокадр)
Время предзагрузки промежутка : 500 мс.
Аудио #2
Идентификатор : 2
Формат : AC-3
Формат/Информация : Audio Coding 3
Идентификатор кодека : 2000
Продолжительность : 1 ч. 40 м.
Вид битрейта : Постоянный
Битрейт : 192 Кбит/сек
Каналы : 2 канала
Частота : 44,1 КГц
Метод сжатия : С потерями
Размер потока : 139 Мбайт (9%)
Выравнивание : Разделение по промежуткам
Продолжительность промежутка : 40 мс. (1,00 видеокадр)
Время предзагрузки промежутка : 500 мс.

Скриншот c названием фильма

Скриншоты

Скачать

Скачать торрент! Мастер тай-чи / Мастер тай-цзи / Man of Tai Chi (Киану Ривз / Keanu Reeves) [2013, Китай, Боевик, HDTVRip] VO + Sub Eng

Как скачивать? · Что такое торрент? · Рейтинг и ограничения

Сайт не распространяет и не хранит электронные версии произведений, а лишь предоставляет доступ к создаваемому пользователями каталогу ссылок на торрент-файлы, которые содержат только списки хеш-сумм

[Профиль] [ЛС]
Показать сообщения:    
Ответить на тему

Текущее время: Сегодня 13:03

Часовой пояс: GMT + 4



Вы не можете начинать темы
Вы не можете отвечать на сообщения
Вы не можете редактировать свои сообщения
Вы не можете удалять свои сообщения
Вы не можете голосовать в опросах
Вы не можете прикреплять файлы к сообщениям
Вы не можете скачивать файлы