Пассажир 57 / Passenger 57 (Кевин Хукс / Kevin Hooks) [1992, США, Боевик, триллер, BDRemux 1080p] Dub (Мост Видео) + Dub (Варус-видео) + DVO + MVO + 2x AVO + Sub Rus + Original Eng

Ответить на тему
 
Автор Сообщение

user ®

Стаж: 7 лет 7 месяцев

Сообщений: 20008

Пост Пост: #1 от 20-Авг-2013 07:20

[Цитировать]

Пассажир 57 / Passenger 57
Страна: США
Жанр: Боевик, триллер
Год выпуска: 1992
Продолжительность: 01:23:44
Перевод 1: Профессиональный (дублированный) Мост Видео
Перевод 2: Профессиональный (дублированный) Варус-видео
Перевод 3: Профессиональный (двухголосый закадровый) НТВ / ТНТ
Перевод 4: Профессиональный (многолосый закадровый) ТВ3
Перевод 5: Авторский (одноголосый закадровый) Гаврилов
Перевод 6: Авторский (одноголосый закадровый) Горчаков
Cубтитры: Russian, English
Оригинальная аудиодорожка: английский
Режиссер: Кевин Хукс / Kevin Hooks
В ролях: Уэсли Снайпс, Брюс Пэйн, Том Сайзмор, Алекс Дэтчер, Брюс Гринвуд, Роберт Хукс, Элизабет Херли, Майкл Хорс, Марк Маколей, Эрни Лайвли
Описание: Чарльз Рейн — безжалостный и неистовый убийца-террорист. Джон Каттер — хладнокровный полицейский из службы безопасности авиакомпании. Схватка хорошего и плохого парней начинается в воздухе, затем продолжится на земле…
Сэмпл
РЕЛИЗ ОТ:
Тип релиза: BDRemux 1080p
Контейнер: MKV
Видео: MPEG-4 AVC, 22943 Кбит/с, 1920x1080, 23.976 кадр/с
Аудио: Russian DD 5.1 48 kHz 384 kbps – дублированный;Мост Видео
Аудио 2: Russian: 48 kHz, AC3, 2/0 (L,R) ch, ~192.00 kbps avg |Дубляж, Варус Видео|
Аудио 3: Russian: 48 kHz, AC3, 2/0 (L,R) ch, ~192.00 kbps avg |Двухголосый закадровый, НТВ / ТНТ|
Аудио 4: Russian DTS 5.1 48 kHz 1510 kbps 24-bit – закадровый (авторский одноголосый, Гаврилов);
Аудио 5: Russian: 48 kHz, AC3, 2/0 (L,R) ch, ~192.00 kbps avg |многолосый ТВ3|
Аудио 6: Russian: 48 kHz, AC3, 2/0 (L,R) ch, ~192.00 kbps avg (авторский одноголосый, Горчаков);
Аудио 7: English DTS-HD MA 5.1 48 kHz 4473 kbps 24-bit (DTS Core: 5.1 48 kHz 1509 kbps 24-bit)

MediaInfo

Общее
Уникальный идентификатор : 203430951826332000120891714020093879556 (0x990B604CEC4EC49282C30BC4D3CE6504)
Полное имя : C:\Users\к\Desktop\Passenger 57 (1992)\Passenger.57.1992.x264.BluRay-Remux.1080p.mkv
Формат : Matroska
Версия формата : Version 2
Размер файла : 17,6 Гбайт
Продолжительность : 1 ч. 23 м.
Режим общего битрейта : Переменный
Общий поток : 30,1 Мбит/сек
Название фильма : Passenger 57 (1992)
Дата кодирования : UTC 2013-08-19 03:08:06
Программа кодирования : mkvmerge v5.7.0 ('The Whirlwind') built on Jul 29 2012 15:12:35
Библиотека кодирования : libebml v1.2.3 + libmatroska v1.3.0
Видео
Идентификатор : 1
Формат : AVC
Формат/Информация : Advanced Video Codec
Профиль формата : High@L4.1
Параметр CABAC формата : Да
Параметр ReFrames формата : 2 кадра
Идентификатор кодека : V_MPEG4/ISO/AVC
Продолжительность : 1 ч. 23 м.
Вид битрейта : Переменный
Ширина : 1920 пикселей
Высота : 1080 пикселей
Соотношение сторон : 16:9
Режим частоты кадров : Постоянный
Частота кадров : 23,976 кадра/сек
Цветовое пространство : YUV
Субдискретизация насыщенности : 4:2:0
Битовая глубина : 8 бит
Тип развёртки : Прогрессивная
Заголовок : Passenger 57 (1992)
Язык : English
Default : Да
Forced : Нет
Аудио #1
Идентификатор : 2
Формат : AC-3
Формат/Информация : Audio Coding 3
Расширение режима : CM (complete main)
Параметр Endianness формата : Big
Идентификатор кодека : A_AC3
Продолжительность : 1 ч. 23 м.
Вид битрейта : Постоянный
Битрейт : 384 Кбит/сек
Каналы : 6 каналов
Расположение каналов : Front: L C R, Side: L R, LFE
Частота : 48,0 КГц
Битовая глубина : 16 бит
Метод сжатия : С потерями
Размер потока : 230 Мбайт (1%)
Заголовок : DD 5.1 48 kHz 384 kbps DUB
Язык : Russian
Default : Да
Forced : Нет
Аудио #2
Идентификатор : 3
Формат : AC-3
Формат/Информация : Audio Coding 3
Расширение режима : CM (complete main)
Параметр Endianness формата : Big
Идентификатор кодека : A_AC3
Продолжительность : 1 ч. 23 м.
Вид битрейта : Постоянный
Битрейт : 192 Кбит/сек
Каналы : 2 канала
Расположение каналов : Front: L R
Частота : 48,0 КГц
Битовая глубина : 16 бит
Метод сжатия : С потерями
Размер потока : 115 Мбайт (1%)
Заголовок : Дублированный (Варус-видео)
Язык : Russian
Default : Нет
Forced : Нет
Аудио #3
Идентификатор : 4
Формат : AC-3
Формат/Информация : Audio Coding 3
Расширение режима : CM (complete main)
Параметр Endianness формата : Big
Идентификатор кодека : A_AC3
Продолжительность : 1 ч. 23 м.
Вид битрейта : Постоянный
Битрейт : 192 Кбит/сек
Каналы : 2 канала
Расположение каналов : Front: L R
Частота : 48,0 КГц
Битовая глубина : 16 бит
Метод сжатия : С потерями
Размер потока : 115 Мбайт (1%)
Заголовок : Профессиональный (двухголосый, закадровый) НТВ- эфир канала ТНТ 12.09.2011
Язык : Russian
Default : Нет
Forced : Нет
Аудио #4
Идентификатор : 5
Формат : DTS
Формат/Информация : Digital Theater Systems
Режим : 16
Параметр Endianness формата : Big
Идентификатор кодека : A_DTS
Продолжительность : 1 ч. 23 м.
Вид битрейта : Постоянный
Битрейт : 1510 Кбит/сек
Каналы : 6 каналов
Расположение каналов : Front: L C R, Side: L R, LFE
Частота : 48,0 КГц
Битовая глубина : 24 бит
Метод сжатия : С потерями
Размер потока : 904 Мбайт (5%)
Заголовок : DTS 5.1 48 kHz 1509 kbps 24-bit AVO (Гаврилов)
Язык : Russian
Default : Нет
Forced : Нет
Аудио #5
Идентификатор : 6
Формат : AC-3
Формат/Информация : Audio Coding 3
Расширение режима : CM (complete main)
Параметр Endianness формата : Big
Идентификатор кодека : A_AC3
Продолжительность : 1 ч. 23 м.
Вид битрейта : Постоянный
Битрейт : 192 Кбит/сек
Каналы : 2 канала
Расположение каналов : Front: L R
Частота : 48,0 КГц
Битовая глубина : 16 бит
Метод сжатия : С потерями
Размер потока : 115 Мбайт (1%)
Заголовок : DD 2.0 48 kHz 192 kbps MVO (ТВ3)
Язык : Russian
Default : Нет
Forced : Нет
Аудио #6
Идентификатор : 7
Формат : AC-3
Формат/Информация : Audio Coding 3
Расширение режима : CM (complete main)
Параметр Endianness формата : Big
Идентификатор кодека : A_AC3
Продолжительность : 1 ч. 23 м.
Вид битрейта : Постоянный
Битрейт : 192 Кбит/сек
Каналы : 2 канала
Расположение каналов : Front: L R
Частота : 48,0 КГц
Битовая глубина : 16 бит
Метод сжатия : С потерями
Размер потока : 115 Мбайт (1%)
Заголовок : DD 2.0 48 kHz 192 kbps AVO (Горчаков)
Язык : Russian
Default : Нет
Forced : Нет
Аудио #7
Идентификатор : 8
Формат : DTS
Формат/Информация : Digital Theater Systems
Профиль формата : MA / Core
Режим : 16
Параметр Endianness формата : Big
Идентификатор кодека : A_DTS
Продолжительность : 1 ч. 23 м.
Вид битрейта : Переменный
Битрейт : Неизвестно / 1509 Кбит/сек
Каналы : 6 каналов
Расположение каналов : Front: L C R, Side: L R, LFE
Частота : 48,0 КГц
Битовая глубина : 24 бит
Метод сжатия : Без потерь / Lossy
Заголовок : DTS-HD MA 5.1 48 kHz 4473 kbps 24-bit
Язык : English
Default : Нет
Forced : Нет
Текст #1
Идентификатор : 9
Формат : UTF-8
Идентификатор кодека : S_TEXT/UTF8
Идентификатор кодека/Информация : UTF-8 Plain Text
Заголовок : Russian
Язык : Russian
Default : Нет
Forced : Нет
Текст #2
Идентификатор : 10
Формат : UTF-8
Идентификатор кодека : S_TEXT/UTF8
Идентификатор кодека/Информация : UTF-8 Plain Text
Заголовок : English
Язык : English
Default : Нет
Forced : Нет
Меню
00:00:00.000 : en:Chapter 1
00:09:55.469 : en:Chapter 2
00:19:39.720 : en:Chapter 3
00:29:12.584 : en:Chapter 4
00:39:04.800 : en:Chapter 5
00:49:26.088 : en:Chapter 6
00:59:28.022 : en:Chapter 7
01:10:21.050 : en:Chapter 8
01:20:38.667 : en:Chapter 9

Скриншоты

Скачать

Скачать торрент!

Как скачивать? · Что такое торрент? · Рейтинг и ограничения

Сайт не распространяет и не хранит электронные версии произведений, а лишь предоставляет доступ к создаваемому пользователями каталогу ссылок на торрент-файлы, которые содержат только списки хеш-сумм

[Профиль] [ЛС]
Показать сообщения:    
Ответить на тему

Текущее время: Сегодня 15:55

Часовой пояс: GMT + 4



Вы не можете начинать темы
Вы не можете отвечать на сообщения
Вы не можете редактировать свои сообщения
Вы не можете удалять свои сообщения
Вы не можете голосовать в опросах
Вы не можете прикреплять файлы к сообщениям
Вы не можете скачивать файлы