Окончательный заход / Final Run / Mu zhong wu ren (Филип Ко / Phillip Ko Fei) [1989, Гонконг, боевик, DVDRip] VO (Виктор Береговых)

Ответить на тему
 
Автор Сообщение

user ®

Стаж: 11 лет

Сообщений: 15151

Пост Пост: #1 от 19-Авг-2013 14:55

[Цитировать]

Окончательный заход / Final Run / Mu zhong wu ren
Страна: Гонконг
Жанр: боевик
Год выпуска: 1989
Продолжительность: 01:29:59-Перевод: Виктор Береговых
Субтитры: китайские, английские (вшитые)-Режиссер: Филип Ко / Phillip Ko Fei-В ролях: Юкари Осима, Майкл Мю, Чун Квок Кён, Филип Ко, Саймон Ям, Люн Ка Янь, Дик Вэй, Фрэнсис Н-Описание: Два друга детства Чыан Чы Нань и Ма Чунь Фунь встречаются спустя многие годы, но встреча носит не простую встречу двух старых друзей, Чунь Фунь зная, что Чы Нань работает в таможенном участке, пытается его подкупить и угорить принять участие в деле по транспортировки героина через таможню. Но всё четно, в итоге применяются крайние меры, за которые Чы Нань поплатится...(Rainmaker)-Релиз групп - -Качество видео: DVDRip (DVD5)
Формат видео: AVI
Видео: XviD, 720x432 (1.67:1), 25 fps, 2117 kbps avg, 0.27 bit/pixel
Аудио : Русский MPEG layer 3, 192 kbps
-

Доп.инфо

Переводчик: Rainmaker
Рип: Public Enemy (((
Тайминг: Public Enemy (((
Постер: Public Enemy (((

MediaInfo

Format : AVI
Format/Info : Audio Video Interleave
File size : 1.46 GiB
Duration : 1h 29mn
Overall bit rate : 2 319 Kbps
Writing application : VirtualDubMod 1.5.10.3 | www.virtualdub-fr.org || (build 2550/release)
Writing library : VirtualDubMod build 2550/release
Video
ID : 0
Format : MPEG-4 Visual
Format profile : Advanced Simple@L5
Format settings, BVOP : 1
Format settings, QPel : No
Format settings, GMC : No warppoints
Format settings, Matrix : Custom
Codec ID : XVID
Codec ID/Hint : XviD
Duration : 1h 29mn
Bit rate : 2 118 Kbps
Width : 720 pixels
Height : 432 pixels
Display aspect ratio : 1.667
Frame rate : 25.000 fps
Color space : YUV
Chroma subsampling : 4:2:0
Bit depth : 8 bits
Scan type : Progressive
Compression mode : Lossy
Bits/(Pixel*Frame) : 0.272
Stream size : 1.33 GiB (91%)
Writing library : XviD 73
Audio
ID : 1
Format : MPEG Audio
Format version : Version 1
Format profile : Layer 3
Codec ID : 55
Codec ID/Hint : MP3
Duration : 1h 29mn
Bit rate mode : Constant
Bit rate : 192 Kbps
Channel(s) : 2 channels
Sampling rate : 48.0 KHz
Compression mode : Lossy
Stream size : 124 MiB (8%)
Alignment : Aligned on interleaves
Interleave, duration : 40 ms (1.00 video frame)
Interleave, preload duration : 504 ms

Скриншот с названием

Скриншоты

Скачать

Скачать торрент! Окончательный заход / Final Run / Mu zhong wu ren (Филип Ко / Phillip Ko Fei) [1989, Гонконг, боевик, DVDRip] VO (Виктор Береговых)

Как скачивать? · Что такое торрент? · Рейтинг и ограничения

Сайт не распространяет и не хранит электронные версии произведений, а лишь предоставляет доступ к создаваемому пользователями каталогу ссылок на торрент-файлы, которые содержат только списки хеш-сумм

[Профиль] [ЛС]
Показать сообщения:    
Ответить на тему

Текущее время: Сегодня 20:39

Часовой пояс: GMT + 4



Вы не можете начинать темы
Вы не можете отвечать на сообщения
Вы не можете редактировать свои сообщения
Вы не можете удалять свои сообщения
Вы не можете голосовать в опросах
Вы не можете прикреплять файлы к сообщениям
Вы не можете скачивать файлы