Бесстрашные бойцы / Бесстрашные воины / Fearless Fighters / A Real Man / Tou tiao hao han (У Миньсюн / Wu Min-Hsiung) [1971, Тайвань, боевые искусства, DVDRip] AVO (Антон Алексеев)

Ответить на тему
 
Автор Сообщение

user ®

Стаж: 11 лет

Сообщений: 15151

Пост Пост: #1 от 19-Авг-2013 00:05

[Цитировать]

Бесстрашные бойцы / Бесстрашные воины / Fearless Fighters / A Real Man / Tou tiao hao han
Страна: Тайвань
Жанр: боевые искусства
Год выпуска: 1971
Продолжительность: 01:22:42
Перевод: Авторский (одноголосый закадровый) Антон Алексеев
Cубтитры: нет
Режиссер: У Миньсюн / Wu Min-Hsiung
В ролях: Чен Хунг-Лье, И Юань, Чжан Цинцин, Цзян Мин, Ма Цзи, Хуан Фэйлун, Хань Су, У Миньсюн, Гуань Хун
Описание: Клан "Когтя орла" решил подзаработать на большой дороге ограбив обоз, перевозивший правительственное золото. Хоть и не с первой попытки, но им это удаётся. Они захватывают золото и смертельно ранят мастера кунг-фу охранявшего обоз, Чен Чена Чоу, известного как "Молниеносный кнут". Но у одного из членов клана "Когтей орла" оказались идейные разногласия с грабителями. Он захватывает золото и убегает, решив вернуть золото правительству. Такая вот завязка. Дальше идёт обычная история с подставами, драками, побегами и конечно, мстительными родственниками...
Благодарность: За исходник благодарность выражается loxaba.
Сэмпл: http://multi-up.com/895102
Качество видео: DVDRip
Формат видео: AVI
Видео: 704x304 (2.32:1), 23.976 fps, XviD build 50 ~2330 kbps avg, 0.45 bit/pixel
Аудио: 48 kHz, AC3 Dolby Digital, 2/0 (L,R) ch, ~192 kbps

MediaInfo

Format : AVI
Format/Info : Audio Video Interleave
File size : 1,46 Гбайт
Duration : 1 ч. 22 м.
Overall bit rate : 2532 Кбит/сек
Writing application : VirtualDubMod 1.5.10.3 | www.virtualdub-fr.org || (build 2550/release)
Writing library : VirtualDubMod build 2550/release
Видео
ID : 0
Format : MPEG-4 Visual
Format profile : Advanced Simple@L5
Format settings, BVOP : 2
Format settings, QPel : Нет
Format settings, GMC : Без точки перехода
Format settings, Matrix : Default (MPEG)
Codec ID : XVID
Codec ID/Hint : XviD
Duration : 1 ч. 22 м.
Bit rate : 2331 Кбит/сек
Width : 704 пикселя
Height : 304 пикселя
Display aspect ratio : 2,35:1
Frame rate : 23,976 кадра/сек
Color space : YUV
Chroma subsampling : 4:2:0
Bit depth : 8 бит
Scan type : Прогрессивная
Compression mode : С потерями
Bits/(Pixel*Frame) : 0.454
Stream size : 1,35 Гбайт (92%)
Writing library : XviD 1.2.1 (UTC 2008-12-04)
Аудио
ID : 1
Format : AC-3
Format/Info : Audio Coding 3
Mode extension : CM (complete main)
Format settings, Endianness : Big
Codec ID : 2000
Duration : 1 ч. 22 м.
Bit rate mode : Постоянный
Bit rate : 192 Кбит/сек
Channel(s) : 2 канала
Channel positions : Front: L R
Sampling rate : 48,0 КГц
Bit depth : 16 бит
Compression mode : С потерями
Stream size : 114 Мбайт (8%)
Alignment : Разделение по промежуткам
Interleave, duration : 42 мс. (1,00 видеокадр)
Interleave, preload duration : 500 мс.

Скриншот c названием фильма

Скриншоты

Скачать

Скачать торрент! Бесстрашные бойцы / Бесстрашные воины / Fearless Fighters / A Real Man / Tou tiao hao han (У Миньсюн / Wu Min-Hsiung) [1971, Тайвань, боевые искусства, DVDRip] AVO (Антон Алексеев)

Как скачивать? · Что такое торрент? · Рейтинг и ограничения

Сайт не распространяет и не хранит электронные версии произведений, а лишь предоставляет доступ к создаваемому пользователями каталогу ссылок на торрент-файлы, которые содержат только списки хеш-сумм

[Профиль] [ЛС]
Показать сообщения:    
Ответить на тему

Текущее время: Сегодня 17:29

Часовой пояс: GMT + 4



Вы не можете начинать темы
Вы не можете отвечать на сообщения
Вы не можете редактировать свои сообщения
Вы не можете удалять свои сообщения
Вы не можете голосовать в опросах
Вы не можете прикреплять файлы к сообщениям
Вы не можете скачивать файлы