Эффект колибри / Hummingbird / Redemption (Стивен Найт / Steven Knight) [2013, США, Боевик, триллер, BDRip 1080p] Dub + Sub Eng + Original Eng

Ответить на тему
 
Автор Сообщение

user ®

Стаж: 7 лет 7 месяцев

Сообщений: 20008

Пост Пост: #1 от 18-Авг-2013 20:55

[Цитировать]

Эффект колибри / Hummingbird / Redemption
Страна: США
Жанр: Боевик, триллер
Год выпуска: 2013
Продолжительность: 01:40:02
Перевод: Профессиональный (дублированный) [Цифровая лицензия iTunes Russia]
Cубтитры: английские
Оригинальная аудиодорожка: английский
Режиссер: Стивен Найт / Steven Knight
В ролях: Джейсон Стэйтем, Агата Бузек, Вики МакКлюр, Бенедикт Вонг, Ли Асквит-Коу, Ли Николас Харрис, Крис Коулин, Санти Скинелли, Дэвид Брэдли (III), Шиван Хьюлетт
Описание: Джоуи Джонс, бывший спецназовец, пытается избавиться от мучительных воспоминаний в лондонских трущобах. Чтобы восстановить справедливость в этом перевернутом мире, он выдает себя за другого человека и превращается в беспощадного ангела мести, который готов беспощадно расправляться с преступниками всех мастей. Изменить его сможет только неожиданная любовь…
Сэмпл
Тип релиза: BDRip 1080p
Контейнер: MKV
Видео: MPEG-4 AVC, 9823 Кбит/с, 1920x1080
Аудио: Russian, 348 Кбит/сек, 48.0 КГц, 6 каналов, 16 бит, AC3
Аудио 2: English, 1510 Кбит/сек, 48.0 КГц, 6 каналов, 16 бит, DTS

MediaInfo

Hummingbird.2013.D.BDRip.1080p.mkv
Format : Matroska
Format version : Version 4 / Version 2
File size : 8.17 GiB
Duration : 1h 40mn
Overall bit rate : 11.7 Mbps
Movie name : Redemption.2013.BluRay.1080p.DTS.x264-CHD
Encoded date : UTC 2013-08-17 15:20:28
Writing application : mkvmerge v6.3.0 ('You can't stop me!') built on Jun 28 2013 20:09:41
Writing library : libebml v1.3.0 + libmatroska v1.4.0
Video
ID : 1
Format : AVC
Format/Info : Advanced Video Codec
Format profile : High@L4.1
Format settings, CABAC : Yes
Format settings, ReFrames : 4 frames
Codec ID : V_MPEG4/ISO/AVC
Duration : 1h 40mn
Bit rate : 9 823 Kbps
Width : 1 920 pixels
Height : 1 080 pixels
Display aspect ratio : 16:9
Frame rate mode : Constant
Frame rate : 23.976 fps
Color space : YUV
Chroma subsampling : 4:2:0
Bit depth : 8 bits
Scan type : Progressive
Bits/(Pixel*Frame) : 0.198
Stream size : 6.69 GiB (82%)
Title : Redemption.2013.BluRay.1080p.DTS.x264-CHD
Writing library : x264 core 132 r2310 76a5c3a
Encoding settings : cabac=1 / ref=4 / deblock=1:-3:-3 / analyse=0x3:0x113 / me=umh / subme=11 / psy=1 / psy_rd=1.00:0.05 / mixed_ref=1 / me_range=32 / chroma_me=1 / trellis=2 / 8x8dct=1 / cqm=0 / deadzone=21,11 / fast_pskip=0 / chroma_qp_offset=-2 / threads=18 / lookahead_threads=1 / sliced_threads=0 / nr=0 / decimate=1 / interlaced=0 / bluray_compat=0 / constrained_intra=0 / bframes=4 / b_pyramid=2 / b_adapt=2 / b_bias=0 / direct=3 / weightb=1 / open_gop=0 / weightp=2 / keyint=250 / keyint_min=23 / scenecut=40 / intra_refresh=0 / rc=2pass / mbtree=0 / bitrate=9823 / ratetol=1.0 / qcomp=0.70 / qpmin=0 / qpmax=69 / qpstep=4 / cplxblur=20.0 / qblur=0.5 / ip_ratio=1.40 / pb_ratio=1.30 / aq=2:0.90
Language : English
Default : Yes
Forced : Yes
Audio #1
ID : 2
Format : AC-3
Format/Info : Audio Coding 3
Mode extension : CM (complete main)
Format settings, Endianness : Big
Codec ID : A_AC3
Duration : 1h 40mn
Bit rate mode : Constant
Bit rate : 384 Kbps
Channel(s) : 6 channels
Channel positions : Front: L C R, Side: L R, LFE
Sampling rate : 48.0 KHz
Bit depth : 16 bits
Compression mode : Lossy
Stream size : 275 MiB (3%)
Title : DD 5.1 @ 384 kbps - Dub, [iTunes]
Language : Russian
Default : Yes
Forced : Yes
Audio #2
ID : 3
Format : DTS
Format/Info : Digital Theater Systems
Mode : 16
Format settings, Endianness : Big
Codec ID : A_DTS
Duration : 1h 40mn
Bit rate mode : Constant
Bit rate : 1 509 Kbps
Channel(s) : 6 channels
Channel positions : Front: L C R, Side: L R, LFE
Sampling rate : 48.0 KHz
Bit depth : 24 bits
Compression mode : Lossy
Stream size : 1.05 GiB (13%)
Title : DTS 5.1 @ 1510 kbps - Original
Language : English
Default : No
Forced : No
Text
ID : 4
Format : UTF-8
Codec ID : S_TEXT/UTF8
Codec ID/Info : UTF-8 Plain Text
Language : English
Default : No
Forced : No

Скриншоты

Скачать

Скачать торрент!

Как скачивать? · Что такое торрент? · Рейтинг и ограничения

Сайт не распространяет и не хранит электронные версии произведений, а лишь предоставляет доступ к создаваемому пользователями каталогу ссылок на торрент-файлы, которые содержат только списки хеш-сумм

[Профиль] [ЛС]
Показать сообщения:    
Ответить на тему

Текущее время: Сегодня 14:14

Часовой пояс: GMT + 4



Вы не можете начинать темы
Вы не можете отвечать на сообщения
Вы не можете редактировать свои сообщения
Вы не можете удалять свои сообщения
Вы не можете голосовать в опросах
Вы не можете прикреплять файлы к сообщениям
Вы не можете скачивать файлы