Эффект колибри / Hummingbird (Стивен Найт / Steven Knight) [2013, США, Боевик, триллер, HDRip-AVC] Dub (iTunes Russia) + Sub Eng + Original Eng

Ответить на тему
 
Автор Сообщение

user ®

Стаж: 7 лет 7 месяцев

Сообщений: 20008

Пост Пост: #1 от 18-Авг-2013 20:55

[Цитировать]

Эффект колибри / Hummingbird
Страна: США
Жанр: Боевик, триллер
Год выпуска: 2013
Продолжительность: 01:40:23
Перевод: Профессиональный (дублированный) iTunes Russia
Cубтитры: английские
Оригинальная аудиодорожка: английский
Режиссер: Стивен Найт / Steven Knight
В ролях: Джейсон Стэйтем, Агата Бузек, Вики МакКлюр, Бенедикт Вонг, Ли Асквит-Коу, Ли Николас Харрис, Крис Коулин, Санти Скинелли, Дэвид Брэдли (III), Шиван Хьюлетт
Описание: Джоуи Джонс, бывший спецназовец, пытается избавиться от мучительных воспоминаний в лондонских трущобах. Чтобы восстановить справедливость в этом перевернутом мире, он выдает себя за другого человека и превращается в беспощадного ангела мести, который готов беспощадно расправляться с преступниками всех мастей. Изменить его сможет только неожиданная любовь…
Сэмпл
Качество видео: HDRip-AVC
Формат видео: MKV
Видео: MPEG-4 AVC, 2310 Кбит/с, 1024x576, 23.976 кадр/с
Аудио: Русский (АС3, 6 ch, 384 Кбит/с)
Аудио 2: английский (АС3, 6 ch, 448 Кбит/с)

MediaInfo

Общее
Полное имя : C:Users-DownloadsHummingbird.2013.x264.HDRip.(AVC).ExKinoRay.mkv
Формат : Matroska
Размер файла : 2,20 Гбайт
Продолжительность : 1 ч. 40 м.
Общий поток : 3142 Кбит/сек
Название фильма : Эффект колибри. 2013. Rip by: ollan
Дата кодирования : UTC 2013-08-17 20:48:11
Программа кодирования : mkvmerge v5.6.0 ('Kenya Kane') built on May 27 2012 16:44:04
Библиотека кодирования : libebml v1.2.3 + libmatroska v1.3.0
Видео
Идентификатор : 1
Формат : AVC
Формат/Информация : Advanced Video Codec
Профиль формата : High@L4.1
Параметр CABAC формата : Да
Параметр ReFrames формата : 9 кадров
Режим смешивания : Container profile=Unknown@4.1
Идентификатор кодека : V_MPEG4/ISO/AVC
Продолжительность : 1 ч. 39 м.
Битрейт : 2247 Кбит/сек
Номинальный битрейт : 2310 Кбит/сек
Ширина : 1024 пикселей
Высота : 576 пикселей
Соотношение сторон : 16:9
Частота кадров : 23,976 кадра/сек
Разрешение : 24 бит
Колориметрия : 4:2:0
Тип развёртки : Прогрессивная
Бит/(Пиксели*Кадры) : 0.159
Размер потока : 1,57 Гбайт (71%)
Библиотека кодирования : x264 core 125 r2200 999b753
Настройки программы : cabac=1 / ref=9 / deblock=1:-2:-2 / analyse=0x3:0x133 / me=umh / subme=11 / psy=1 / psy_rd=1.00:0.00 / mixed_ref=1 / me_range=32 / chroma_me=1 / trellis=2 / 8x8dct=1 / cqm=0 / deadzone=21,11 / fast_pskip=0 / chroma_qp_offset=-2 / threads=12 / lookahead_threads=2 / sliced_threads=0 / nr=0 / decimate=0 / interlaced=0 / bluray_compat=0 / constrained_intra=0 / bframes=9 / b_pyramid=2 / b_adapt=1 / b_bias=0 / direct=3 / weightb=1 / open_gop=0 / weightp=2 / keyint=240 / keyint_min=23 / scenecut=40 / intra_refresh=0 / rc_lookahead=80 / rc=2pass / mbtree=1 / bitrate=2310 / ratetol=1.0 / qcomp=0.60 / qpmin=0 / qpmax=69 / qpstep=4 / cplxblur=20.0 / qblur=0.5 / ip_ratio=1.40 / aq=1:1.00
Аудио #1
Идентификатор : 2
Формат : AC-3
Формат/Информация : Audio Coding 3
Идентификатор кодека : A_AC3
Продолжительность : 1 ч. 40 м.
Вид битрейта : Постоянный
Битрейт : 384 Кбит/сек
Каналы : 6 каналов
Расположение каналов : Front: L C R, Surround: L R, LFE
Частота : 48,0 КГц
Размер потока : 275 Мбайт (12%)
Заголовок : Дублированный (iTunes Russia)
Язык : Russian
Аудио #2
Идентификатор : 3
Формат : AC-3
Формат/Информация : Audio Coding 3
Идентификатор кодека : A_AC3
Продолжительность : 1 ч. 40 м.
Вид битрейта : Постоянный
Битрейт : 448 Кбит/сек
Каналы : 6 каналов
Расположение каналов : Front: L C R, Surround: L R, LFE
Частота : 48,0 КГц
Размер потока : 321 Мбайт (14%)
Текст
Идентификатор : 4
Формат : UTF-8
Идентификатор кодека : S_TEXT/UTF8
Идентификатор кодека/Информация : UTF-8 Plain Text

Скриншот c названием фильма

Скриншоты

Скачать

Скачать торрент!

Как скачивать? · Что такое торрент? · Рейтинг и ограничения

Сайт не распространяет и не хранит электронные версии произведений, а лишь предоставляет доступ к создаваемому пользователями каталогу ссылок на торрент-файлы, которые содержат только списки хеш-сумм

[Профиль] [ЛС]
Показать сообщения:    
Ответить на тему

Текущее время: Сегодня 13:39

Часовой пояс: GMT + 4



Вы не можете начинать темы
Вы не можете отвечать на сообщения
Вы не можете редактировать свои сообщения
Вы не можете удалять свои сообщения
Вы не можете голосовать в опросах
Вы не можете прикреплять файлы к сообщениям
Вы не можете скачивать файлы