Воры / The Thieves / Dodookdeul (Дон-Хун Чой / Dong-Hoon Choi) [2012, Южная Корея, боевик, криминал, HDRip] DVO (студия Elrom)

Ответить на тему
 
Автор Сообщение

user ®

Стаж: 11 лет

Сообщений: 15151

Пост Пост: #1 от 17-Авг-2013 23:45

[Цитировать]

Воры / The Thieves / Dodookdeul
Страна: Южная Корея
Жанр: боевик, криминал
Год выпуска: 2012
Продолжительность: 02:15:53
Перевод: Профессиональный (двухголосый закадровый) студия Elrom
Cубтитры: нет
Режиссер: Дон-Хун Чой / Dong-Hoon Choi
В ролях: Юн-сок Ким /Yun-seok Kim/, Чон-Чэ Ли /Jung-Jae Lee/, Хье-су Ким /Hye-su Kim/, Джианна Юн /Gianna Jun/, Саймон Ям /Simon Yam/, Хэ-сук Ким /Hae-suk Kim/, Даль-су О /Dal-su Oh/
Описание: Интернациональная команда воров экстра-класса планирует грандиозное ограбление в Макао. Все участники банды — опытные профессионалы, бывали в переделках и способны эффективно работать в самых опасных и стрессовых условиях. Однако, несмотря на то, что все роли в безупречном плане преступления четко определены, многие из участников расклада совсем не собираются довольствоваться своей долей и коварно намереваются умыкнуть весь куш. К тому же один из них — полицейский «под прикрытием»…
Доп. информация:
IMDB
Призводство: CJ Venture Investment, KM Culture Co., Michigan Venture Capital (Южная Корея)
Sample
Качество видео: HDrip (рип с The.Thieves.2012.BluRay.1080p.DTS.x264-CHD.mkv)
Формат видео: AVI
Видео: Xvid 720x304 24.00fps 1392kbps
Аудио: MPEG Audio Layer 3 48000Hz stereo 128kbps

MediaInfo

General
Complete name : Q:\The.Thieves.2012.BluRay.1080p.DTS.x264-CHD\Vory.2012.HDrip.XviD.Rus_25KADR.avi
Format : AVI
Format/Info : Audio Video Interleave
File size : 1.46 GiB
Duration : 2h 15mn
Overall bit rate : 1 534 Kbps
Video
ID : 0
Format : MPEG-4 Visual
Format profile : Advanced Simple@L5
Format settings, BVOP : Yes
Format settings, QPel : No
Format settings, GMC : No warppoints
Format settings, Matrix : Default (MPEG)
Codec ID : XVID
Codec ID/Hint : XviD
Duration : 2h 15mn
Bit rate : 1 393 Kbps
Width : 720 pixels
Height : 304 pixels
Display aspect ratio : 2.35:1
Frame rate : 24.000 fps
Color space : YUV
Chroma subsampling : 4:2:0
Bit depth : 8 bits
Scan type : Progressive
Bits/(Pixel*Frame) : 0.265
Stream size : 1.32 GiB (91%)
Writing library : XviD 64
Audio
ID : 1
Format : MPEG Audio
Format version : Version 1
Format profile : Layer 3
Mode : Joint stereo
Mode extension : MS Stereo
Codec ID : 55
Codec ID/Hint : MP3
Duration : 2h 15mn
Bit rate mode : Constant
Bit rate : 128 Kbps
Channel(s) : 2 channels
Sampling rate : 48.0 KHz
Bit depth : 16 bits
Stream size : 124 MiB (8%)
Alignment : Aligned on interleaves
Interleave, duration : 24 ms (0.58 video frame)

Скриншоты



на всякий случай

Да, попадается в сети еще рип на 2234MB с битрейтом картинки 2094кбпс и любительской озвучкой. Вот, сравнил картинку, моя картинка с битрейтом 1392kbps не хуже, а местами и лучше.
Скачать

Скачать торрент! Воры / The Thieves / Dodookdeul (Дон-Хун Чой / Dong-Hoon Choi) [2012, Южная Корея, боевик, криминал, HDRip] DVO (студия Elrom)

Как скачивать? · Что такое торрент? · Рейтинг и ограничения

Сайт не распространяет и не хранит электронные версии произведений, а лишь предоставляет доступ к создаваемому пользователями каталогу ссылок на торрент-файлы, которые содержат только списки хеш-сумм

[Профиль] [ЛС]
Показать сообщения:    
Ответить на тему

Текущее время: Сегодня 11:31

Часовой пояс: GMT + 4



Вы не можете начинать темы
Вы не можете отвечать на сообщения
Вы не можете редактировать свои сообщения
Вы не можете удалять свои сообщения
Вы не можете голосовать в опросах
Вы не можете прикреплять файлы к сообщениям
Вы не можете скачивать файлы