Том и Джерри: Гигантское приключение / Tom and Jerry's Giant Adventure (Спайк Брандт / Spike Brandt, Тони Сервоне / Tony Cervone) [2013, мультфильм, HDRip] Dub

Ответить на тему
 
Автор Сообщение

user ®

Стаж: 13 лет

Сообщений: 15041

Пост Пост: #1 от 17-Авг-2013 20:35

[Цитировать]

Том и Джерри: Гигантское приключение / Tom and Jerry's Giant Adventure
Страна: США
Жанр: мультфильм
Продолжительность: 00:57:07
Год выпуска: 2013
Перевод: Профессиональный (дублированный)
Русские субтитры: нет-Режиссёр: Спайк Брандт / Spike Brandt, Тони Сервоне / Tony Cervone
Роли озвучивали: Том Уилсон, Гаррисон Кейллор, Пол Рубенс, Грей Делайл, Иаков Бертран
Описание: Любимцы зрителей, легендарные Том и Джерри вновь оказываются втянутыми в увлекательное приключение!-На этот раз они вместе с юным Джеком возрождают известную всем сказку "Джек и волшебные бобы". Вместе они отчаянно пытаются спасти волшебный парк. Раздобыв волшебные бобы, они отправляются в путешествие, которое сулит им встречу с многими известными зрителям персонажами, такими как Спайк и Золотой гусь.
Смогут ли Том и Джерри положить конец своей извечной вражде, чтобы спасти волшебный парк? Смотрите Том и Джерри: Гигантское приключение, и узнаете!-Доп. информация:

-Качество: HDRip
Формат: AVI
Видео: XviD, 720x400, 23.976 fps, ~ 1511 Kbit/s
Аудио: АС3, 48000 Hz, 2 каналов, 192 kbit/s
Субтитры: "отсутствуют"

Подробные технические данные

ОбщееПолное имя : E:\Tom.i.Dzherri.Gigantskoe.prikljuchenie.2013.D.HDRip.700Mb.aviФормат : AVIФормат/Информация : Audio Video InterleaveРазмер файла : 700 МбайтПродолжительность : 57 м.Общий поток : 1713 Кбит/секПрограмма кодирования : VirtualDubMod 1.5.10.3 | www.virtualdub-fr.org || (build 2550/release)Библиотека кодирования : VirtualDubMod build 2550/release
ВидеоИдентификатор : 0Формат : MPEG-4 VisualПрофиль формата : Advanced Simple@L5Параметр BVOP формата : 2Параметр QPel формата : НетПараметр GMC формата : Без точки переходаПараметр матрицы формата : ВыборочнаяИдентификатор кодека : XVIDИдентификатор кодека/Подсказка : XviDПродолжительность : 57 м.Битрейт : 1511 Кбит/секШирина : 720 пикселейВысота : 400 пикселейСоотношение сторон : 16:9Частота кадров : 23,976 кадра/секЦветовое пространство : YUVСубдискретизация насыщенности : 4:2:0Битовая глубина : 8 битТип развёртки : ПрогрессивнаяМетод сжатия : С потерямиБит/(Пиксели*Кадры) : 0.219Размер потока : 618 Мбайт (88%)Библиотека кодирования : XviD 1.2.1 (UTC 2008-12-04)
АудиоИдентификатор : 1Формат : AC-3Формат/Информация : Audio Coding 3Профиль формата : Dolby DigitalРасширение режима : CM (complete main)Параметр Endianness формата : BigИдентификатор кодека : 2000Продолжительность : 57 м.Вид битрейта : ПостоянныйБитрейт : 192 Кбит/секКаналы : 2 каналаРасположение каналов : Front: L RЧастота : 48,0 КГцБитовая глубина : 16 битМетод сжатия : С потерямиРазмер потока : 78,4 Мбайт (11%)Выравнивание : Разделение по промежуткамПродолжительность промежутка : 42 мс. (1,00 видеокадр)Время предзагрузки промежутка : 500 мс.

Скриншоты

Скачать

Скачать торрент! Том и Джерри: Гигантское приключение / Tom and Jerry's Giant Adventure (Спайк Брандт / Spike Brandt, Тони Сервоне / Tony Cervone) [2013, мультфильм, HDRip] Dub

Как скачивать? · Что такое торрент? · Рейтинг и ограничения

Сайт не распространяет и не хранит электронные версии произведений, а лишь предоставляет доступ к создаваемому пользователями каталогу ссылок на торрент-файлы, которые содержат только списки хеш-сумм

[Профиль] [ЛС]
Показать сообщения:    
Ответить на тему

Текущее время: Сегодня 04:38

Часовой пояс: GMT + 4



Вы не можете начинать темы
Вы не можете отвечать на сообщения
Вы не можете редактировать свои сообщения
Вы не можете удалять свои сообщения
Вы не можете голосовать в опросах
Вы не можете прикреплять файлы к сообщениям
Вы не можете скачивать файлы