От нуля до шестидесяти / Zero to Sixty (Дон Уис / Don Weis) [1978, США, комедия, HDTV 1080i] MVO (НТВ+) + Original Eng

Ответить на тему
 
Автор Сообщение

user ®

Стаж: 8 лет 2 месяца

Сообщений: 20008

Пост Пост: #1 от 17-Авг-2013 07:05

[Цитировать]

От нуля до шестидесяти / Zero to Sixty
Страна: США
Студия: First Artists, Grand Metropolitan
Жанр: комедия
Год выпуска: 1978
Продолжительность: 01:36:51
Перевод: Профессиональный (многоголосый закадровый) НТВ+
Cубтитры: нет
Оригинальная аудиодорожка: английский
Режиссер: Дон Уис / Don Weis
В ролях: Даррен МакГейвин / Darren McGavin ... Michael Nolan, Сильвия Майлз / Sylvia, Miles ... Flo Ames, Джоан Коллинз / Joan Collins ... Gloria Martine, Денис Никерсон / Denise Nickerson ...'Larry' Wilde, Билл Хадсон / Bill Hudson ... Eddie, Бретт Хадсон / Brett Hudson ... Harry, Марк Хадсон / Mark Hudson ... Sammy, Вито Скотти / Vito Scotti ... Benny, Лоррэйн Гари / Lorraine Gary ... Billy-Jon, Дэвид Хаддлстон / David Huddleston ... Harold Finch
Описание: Недавно разведшийся Майкл получает работу в компании, занимающейся правами собственности на автомобили, после того, как он узнал, что его собственный автомобиль был у него изъят, потому что его бывшая жена не внесла вовремя деньги...

Доп. информация: За оригинальную дорогу спасибо StudioRAK
Тип релиза: HDTV 1080i
Контейнер: MKV
Видео: AVC 1920x1080 (16:9)) 25.0fps Bit rate 6213Kbps
Аудио 1: MP2 48.0 KHz 2ch. 192kbps rus
Аудио 2: AC3 48.0 KHz 2ch. 192kbps eng

MediaInfo

General
Complete name : E:\torrent\Ot 0 do 60_HDTV 1080i.mkv
Format : Matroska
File size : 4.55 GiB
Duration : 1h 36mn
Overall bit rate : 6 731 Kbps
Encoded date : UTC 2013-08-16 06:33:48
Writing application : mkvmerge v5.7.0 ('The Whirlwind') built on Jul 8 2012 20:08:51
Writing library : libebml v1.2.3 + libmatroska v1.3.0
Video
ID : 1
Format : AVC
Format/Info : Advanced Video Codec
Format profile : High@L4.0
Format settings, CABAC : Yes
Format settings, ReFrames : 3 frames
Format settings, GOP : M=1, N=64
Muxing mode : Container profile=Unknown@4.0
Codec ID : V_MPEG4/ISO/AVC
Duration : 1h 36mn
Bit rate : 6 213 Kbps
Width : 1 920 pixels
Height : 1 080 pixels
Display aspect ratio : 16:9
Frame rate : 50.000 fps
Original frame rate : 25.000 fps
Standard : Component
Color space : YUV
Chroma subsampling : 4:2:0
Bit depth : 8 bits
Scan type : Interlaced
Scan order : Top Field First
Bits/(Pixel*Frame) : 0.060
Stream size : 4.20 GiB (92%)
Title : Ot 0 do 60_HDTV 1080i
Color primaries : BT.709-5, BT.1361, IEC 61966-2-4, SMPTE RP177
Transfer characteristics : BT.709-5, BT.1361
Matrix coefficients : BT.709-5, BT.1361, IEC 61966-2-4 709, SMPTE RP177
Audio #1
ID : 2
Format : MPEG Audio
Format version : Version 1
Format profile : Layer 2
Codec ID : A_MPEG/L2
Codec ID/Hint : MP2
Duration : 1h 36mn
Bit rate mode : Constant
Bit rate : 192 Kbps
Channel(s) : 2 channels
Sampling rate : 48.0 KHz
Stream size : 133 MiB (3%)
Title : Ot 0 do 60_MP2_rus_MVO_NTV+
Language : Russian
Audio #2
ID : 3
Format : AC-3
Format/Info : Audio Coding 3
Mode extension : CM (complete main)
Codec ID : A_AC3
Duration : 1h 36mn
Bit rate mode : Constant
Bit rate : 192 Kbps
Channel(s) : 2 channels
Channel positions : Front: L R
Sampling rate : 48.0 KHz
Bit depth : 16 bits
Stream size : 133 MiB (3%)
Title : Ot 0 do 60_AC3_original eng

Скриншот с названием фильма

Скриншоты

Скачать

Скачать торрент!

Как скачивать? · Что такое торрент? · Рейтинг и ограничения

Сайт не распространяет и не хранит электронные версии произведений, а лишь предоставляет доступ к создаваемому пользователями каталогу ссылок на торрент-файлы, которые содержат только списки хеш-сумм

[Профиль] [ЛС]
Показать сообщения:    
Ответить на тему

Текущее время: Сегодня 09:29

Часовой пояс: GMT + 4



Вы не можете начинать темы
Вы не можете отвечать на сообщения
Вы не можете редактировать свои сообщения
Вы не можете удалять свои сообщения
Вы не можете голосовать в опросах
Вы не можете прикреплять файлы к сообщениям
Вы не можете скачивать файлы