Китайская жара / China Heat / Zhong Hua jing hua (Уильям Чун Кэй / William Cheung Kei, Ян Ян / Yang Yang) [1992, Китай, боевик, DVDRip] Sub Rus

Ответить на тему
 
Автор Сообщение

user ®

Стаж: 11 лет

Сообщений: 15151

Пост Пост: #1 от 16-Авг-2013 22:45

[Цитировать]

Китайская жара / China Heat / Zhong Hua jing hua
Страна: Китай
Жанр: боевик
Год выпуска: 1992
Продолжительность: 01:30:59-Перевод: Субтитры русские - Message of death
Субтитры: русские (вшитые)
Оригинальная аудиодорожка: Мандаринский-Режиссер: Уильям Чун Кэй / William Cheung Kei, Ян Ян / Yang Yang-В ролях: Сибель Ху, Мэн Сян Ли, Ли Чы Пин, Ку Гаай Лам, Майкл Де Паскуале, София Кроуфорд, Аллен Лан-Описание: Известный наркобарон (Аллан Лан) сбегает от азиатской полиции в Штаты, но китайские служители закона не собираются отпускать его просто так. Вслед за ним в Америку снаряжается спецотряд из лучших представительниц полиции, а со стороны США девушкам помогает местный коп (Майкл Де Паскуале). (Akira)- -Качество видео: DVDRip (DVD9)
Формат видео: AVI
Видео: XviD, 720x400 (1.80:1), 23.976 fps, 2002 kbps avg, 0.29 bit/pixel
Аудио : Мандаринский MPEG layer 3, 128 kbps
-

Доп.инфо

Рип: Message of death
Постер: Public Enemy (((

MediaInfo

Format : AVI
Format/Info : Audio Video Interleave
File size : 1.36 GiB
Duration : 1h 30mn
Overall bit rate : 2 140 Kbps
Writing application : VirtualDubMod 1.5.10.3 | www.virtualdub-fr.org || (build 2550/release)
Writing library : VirtualDubMod build 2550/release
Video
ID : 0
Format : MPEG-4 Visual
Format profile : Advanced Simple@L5
Format settings, BVOP : 1
Format settings, QPel : No
Format settings, GMC : No warppoints
Format settings, Matrix : Custom
Codec ID : XVID
Codec ID/Hint : XviD
Duration : 1h 30mn
Bit rate : 2 003 Kbps
Width : 720 pixels
Height : 400 pixels
Display aspect ratio : 16:9
Frame rate : 23.976 fps
Color space : YUV
Chroma subsampling : 4:2:0
Bit depth : 8 bits
Scan type : Progressive
Compression mode : Lossy
Bits/(Pixel*Frame) : 0.290
Stream size : 1.27 GiB (94%)
Writing library : XviD 73
Audio
ID : 1
Format : MPEG Audio
Format version : Version 1
Format profile : Layer 3
Codec ID : 55
Codec ID/Hint : MP3
Duration : 1h 30mn
Bit rate mode : Constant
Bit rate : 128 Kbps
Channel(s) : 2 channels
Sampling rate : 48.0 KHz
Compression mode : Lossy
Stream size : 83.3 MiB (6%)
Alignment : Aligned on interleaves
Interleave, duration : 42 ms (1.00 video frame)
Interleave, preload duration : 504 ms

Скриншот с названием

Скриншоты

Скачать

Скачать торрент! Китайская жара / China Heat / Zhong Hua jing hua (Уильям Чун Кэй / William Cheung Kei, Ян Ян / Yang Yang) [1992, Китай, боевик, DVDRip] Sub Rus

Как скачивать? · Что такое торрент? · Рейтинг и ограничения

Сайт не распространяет и не хранит электронные версии произведений, а лишь предоставляет доступ к создаваемому пользователями каталогу ссылок на торрент-файлы, которые содержат только списки хеш-сумм

[Профиль] [ЛС]
Показать сообщения:    
Ответить на тему

Текущее время: Сегодня 14:48

Часовой пояс: GMT + 4



Вы не можете начинать темы
Вы не можете отвечать на сообщения
Вы не можете редактировать свои сообщения
Вы не можете удалять свои сообщения
Вы не можете голосовать в опросах
Вы не можете прикреплять файлы к сообщениям
Вы не можете скачивать файлы