Кровью и потом: Анаболики / Pain & Gain (Майкл Бэй / Michael Bay) [2013, Боевик, триллер, комедия, BDRip-AVC] VO (zamez) + Original (Eng) + Sub (eng)

Ответить на тему
 
Автор Сообщение

user ®

Стаж: 7 лет 7 месяцев

Сообщений: 20008

Пост Пост: #1 от 16-Авг-2013 22:45

[Цитировать]

Кровью и потом: Анаболики / Pain & Gain
Страна: США / De Line Pictures, Paramount Pictures, Platinum Dunes
Жанр: Боевик, триллер, комедия
Год выпуска: 2013
Продолжительность: 02:09:37-Перевод: Одноголосый закадровый (Озвучил Вячеслав Замез по переводу Виталия Богданова) - Присутствует ненормативная лексика.
Cубтитры: английские, английские (SDH / Color)
Формат субтитров: softsub (SRT)
Оригинальная аудиодорожка: английский-Режиссер: Майкл Бэй / Michael Bay
В ролях: Марк Уолберг, Дуэйн Джонсон, Энтони Маки, Тони Шэлоуб, Эд Харрис, Кен Жонг, Иоланта Кабау ван Касберген, Виорика Пинеда, Роб Кордри, Ребел Уилсон
Описание: Однажды тренеру по фитнесу надоело ходить в трениках. Он решил круто изменить свою судьбу и разбогатеть. Нашел двух других незадачливых качков и предложил им план похищения своего клиента-миллионера. Но если в организме мышц больше, чем мозгов, то даже самый лучший план, подсмотренный в экшен-боевике, может не сработать…- -Релиз от:
Автор рипа: potroks-Качество видео: BDRip-AVC [Pain.And.Gain.2013.1080p.BluRay.REMUX.TrueHD.7.1-PublicHD]
Формат видео: MKV
Видео: х.264, 984x410 (2,40:1), 23.976 fps, 2320 Кbps, 0.240 bit/pixel
Аудио #1: 48 kHz, AC3 Dolby Digital, 3/2 (L,C,R,l,r) ch, 384.00 kbps | RUS
Аудио #2: 48 kHz, AC3 Dolby Digital, 3/2 (L,C,R,l,r) ch, 448.00 kbps | ENG

MediaInfo

Общее
Уникальный идентификатор : 200586972793249849270749520581182691957 (0x96E7A54EEE7DE82EA9E9624C76551A75)
Полное имя : Krov'ju.&.Potom.Anaboliki.2013.DUAL.BDRip.x264.-HELLYWOOD.mkv
Формат : Matroska
Версия формата : Version 4 / Version 2
Размер файла : 2,85 Гбайт
Продолжительность : 2 ч. 9 м.
Общий поток : 3153 Кбит/сек
Название фильма : HELLYWOOD - rip by potroks
Дата кодирования : UTC 2013-08-15 07:55:57
Программа кодирования : mkvmerge v5.9.0 ('On The Loose') built on Dec 15 2012 16:39:58
Библиотека кодирования : libebml v1.3.0 + libmatroska v1.4.0
Видео
Идентификатор : 1
Формат : AVC
Формат/Информация : Advanced Video Codec
Профиль формата : High@L4.1
Параметр CABAC формата : Да
Параметр ReFrames формата : 12 кадров
Идентификатор кодека : V_MPEG4/ISO/AVC
Продолжительность : 2 ч. 9 м.
Битрейт : 2320 Кбит/сек
Ширина : 984 пикселя
Высота : 410 пикселей
Соотношение сторон : 2,40:1
Режим частоты кадров : Постоянный
Частота кадров : 23,976 кадра/сек
Цветовое пространство : YUV
Субдискретизация насыщенности : 4:2:0
Битовая глубина : 8 бит
Тип развёртки : Прогрессивная
Бит/(Пиксели*Кадры) : 0.240
Размер потока : 2,04 Гбайт (72%)
Заголовок : Pain & Gain
Библиотека кодирования : x264 core 130 r2273 b3065e6
Настройки программы : cabac=1 / ref=12 / deblock=1:-2:-2 / analyse=0x3:0x133 / me=umh / subme=11 / psy=1 / psy_rd=1.05:0.00 / mixed_ref=1 / me_range=32 / chroma_me=1 / trellis=2 / 8x8dct=1 / cqm=0 / deadzone=21,11 / fast_pskip=0 / chroma_qp_offset=-2 / threads=6 / lookahead_threads=1 / sliced_threads=0 / nr=0 / decimate=1 / interlaced=0 / bluray_compat=0 / constrained_intra=0 / bframes=13 / b_pyramid=2 / b_adapt=2 / b_bias=0 / direct=3 / weightb=1 / open_gop=0 / weightp=2 / keyint=250 / keyint_min=23 / scenecut=40 / intra_refresh=0 / rc_lookahead=60 / rc=2pass / mbtree=0 / bitrate=2320 / ratetol=1.0 / qcomp=0.70 / qpmin=0 / qpmax=69 / qpstep=4 / cplxblur=20.0 / qblur=0.5 / vbv_maxrate=20000 / vbv_bufsize=20000 / nal_hrd=none / ip_ratio=1.35 / pb_ratio=1.25 / aq=1:0.90
Язык : English
Default : Да
Forced : Нет
Аудио #1
Идентификатор : 2
Формат : AC-3
Формат/Информация : Audio Coding 3
Расширение режима : CM (complete main)
Параметр Endianness формата : Big
Идентификатор кодека : A_AC3
Продолжительность : 2 ч. 9 м.
Вид битрейта : Постоянный
Битрейт : 384 Кбит/сек
Каналы : 6 каналов
Расположение каналов : Front: L C R, Side: L R, LFE
Частота : 48,0 КГц
Битовая глубина : 16 бит
Метод сжатия : С потерями
Размер потока : 356 Мбайт (12%)
Заголовок : VO | DD 5.1 @ 384 kbps - zamez
Язык : Russian
Default : Да
Forced : Да
Аудио #2
Идентификатор : 3
Формат : AC-3
Формат/Информация : Audio Coding 3
Расширение режима : CM (complete main)
Параметр Endianness формата : Big
Идентификатор кодека : A_AC3
Продолжительность : 2 ч. 9 м.
Вид битрейта : Постоянный
Битрейт : 448 Кбит/сек
Каналы : 6 каналов
Расположение каналов : Front: L C R, Side: L R, LFE
Частота : 48,0 КГц
Битовая глубина : 16 бит
Метод сжатия : С потерями
Размер потока : 415 Мбайт (14%)
Заголовок : Original | DD 5.1 @ 448 kbps
Язык : English
Default : Нет
Forced : Нет
Текст #1
Идентификатор : 4
Формат : UTF-8
Идентификатор кодека : S_TEXT/UTF8
Идентификатор кодека/Информация : UTF-8 Plain Text
Язык : English
Default : Нет
Forced : Нет
Текст #2
Идентификатор : 5
Формат : UTF-8
Идентификатор кодека : S_TEXT/UTF8
Идентификатор кодека/Информация : UTF-8 Plain Text
Заголовок : Color / SDH
Язык : English
Default : Нет
Forced : Нет
Меню
00:00:00.000 : en:00:00:00.000
00:02:34.654 : en:00:02:34.654
00:09:33.990 : en:00:09:33.990
00:16:08.676 : en:00:16:08.676
00:22:05.658 : en:00:22:05.658
00:25:50.841 : en:00:25:50.841
00:32:45.505 : en:00:32:45.505
00:38:52.789 : en:00:38:52.789
00:46:19.652 : en:00:46:19.652
00:51:40.973 : en:00:51:40.973
00:58:11.738 : en:00:58:11.738
01:04:03.548 : en:01:04:03.548
01:10:32.311 : en:01:10:32.311
01:16:17.281 : en:01:16:17.281
01:21:20.542 : en:01:21:20.542
01:29:00.085 : en:01:29:00.085
01:37:06.029 : en:01:37:06.029
01:42:17.715 : en:01:42:17.715
01:49:10.461 : en:01:49:10.461
01:56:34.487 : en:01:56:34.487
02:01:42.295 : en:02:01:42.295

log@x.264

x264 [info]: frame I:1873 Avg QP:17.77 size: 67336
x264 [info]: frame P:48925 Avg QP:20.66 size: 21496
x264 [info]: frame B:135657 Avg QP:22.63 size: 7930
x264 [info]: consecutive B-frames: 4.5% 5.5% 12.4% 30.9% 20.4% 19.3% 3.3% 1.5% 0.7% 0.4% 0.3% 0.3% 0.2% 0.2%
x264 [info]: mb I I16..4: 6.5% 65.3% 28.2%
x264 [info]: mb P I16..4: 1.4% 10.2% 2.5% P16..4: 29.8% 33.0% 13.2% 2.6% 0.4% skip: 6.9%
x264 [info]: mb B I16..4: 0.2% 1.2% 0.3% B16..8: 33.6% 20.9% 4.0% direct: 6.6% skip:33.3% L0:40.0% L1:42.4% BI:17.6%
x264 [info]: 8x8 transform intra:71.3% inter:61.2%
x264 [info]: direct mvs spatial:96.1% temporal:3.9%
x264 [info]: coded y,uvDC,uvAC intra: 82.6% 89.6% 74.5% inter: 24.6% 29.1% 13.2%
x264 [info]: i16 v,h,dc,p: 36% 14% 5% 44%
x264 [info]: i8 v,h,dc,ddl,ddr,vr,hd,vl,hu: 10% 10% 6% 9% 13% 13% 14% 12% 14%
x264 [info]: i4 v,h,dc,ddl,ddr,vr,hd,vl,hu: 13% 12% 5% 8% 13% 13% 13% 10% 12%
x264 [info]: i8c dc,h,v,p: 39% 22% 18% 20%
x264 [info]: Weighted P-Frames: Y:3.5% UV:2.2%
x264 [info]: ref P L0: 50.0% 14.5% 14.9% 5.5% 4.0% 3.0% 2.4% 1.4% 1.2% 1.0% 0.9% 0.9% 0.2% 0.0%
x264 [info]: ref B L0: 75.1% 10.8% 5.6% 2.5% 2.0% 1.3% 1.1% 0.7% 0.5% 0.3% 0.2%
x264 [info]: ref B L1: 92.8% 7.2%
x264 [info]: kb/s:2318.25
x264 [total]: encoded 186455 frames, 7.23 fps, 2318.25 kb/s
TIME
------------------------------
Общее время кодирования: 8 hour 41 min 43 sec
Файл получился на: 2150.50 mb

Скриншоты



Скачать

Скачать торрент!

Как скачивать? · Что такое торрент? · Рейтинг и ограничения

Сайт не распространяет и не хранит электронные версии произведений, а лишь предоставляет доступ к создаваемому пользователями каталогу ссылок на торрент-файлы, которые содержат только списки хеш-сумм

[Профиль] [ЛС]
Показать сообщения:    
Ответить на тему

Текущее время: Сегодня 14:08

Часовой пояс: GMT + 4



Вы не можете начинать темы
Вы не можете отвечать на сообщения
Вы не можете редактировать свои сообщения
Вы не можете удалять свои сообщения
Вы не можете голосовать в опросах
Вы не можете прикреплять файлы к сообщениям
Вы не можете скачивать файлы