Великий Гэтсби / The Great Gatsby (Баз Лурман / Baz Luhrmann) [2013, Австралия, США, драма, мелодрама, BDRip 1080p] Dub + VO (lord666) + Original Eng + Sub (Rus, Eng)

Ответить на тему
 
Автор Сообщение

user ®

Стаж: 7 лет 7 месяцев

Сообщений: 20008

Пост Пост: #1 от 16-Авг-2013 04:05

[Цитировать]

Великий Гэтсби / The Great Gatsby«Нельзя вернуть прошлое? Ну, конечно, можно!» Год выпуска: 2013
Страна: Австралия, США
Жанр: драма, мелодрама
Продолжительность: 02:22:05.725
Перевод 1: Профессиональный (дублированный)
Перевод 2: Одноголосый закадровый [url=http://***/forum/profile.php?mode=viewprofile&u=13487728]lord666[/url]
Оригинальная аудиодорожка: Английская
Субтитры: Русские (Full Voronine), английские (Full, SDH, SDH Colored)
Студия: Warner Bros., Village Roadshow Pictures, A&E Television Networks
Режиссёр: Баз Лурман / Baz Luhrmann
В ролях: Леонардо ДиКаприо (Jay Gatsby), Тоби Магуайр (Nick Carraway), Кэри Маллиган (Daisy Buchanan), Джоэл Эдгертон (Tom Buchanan), Айла Фишер (Myrtle Wilson), Джейсон Кларк (George Wilson), Амитабх Баччан (Meyer Wolfsheim), Стив Бисли (Dan Cody), Ричард Картер (Herzog), Эделейд Клеменс (Catherine) и др.
Описание: Весной 1922 года, в эпоху разлагающейся морали, блистательного джаза и «королей контрабандного алкоголя», Ник Каррауэй приезжает из Среднего Запада в Нью-Йорк. Преследуя собственную американскую мечту, он селится по соседству с таинственным, известным своими вечеринками миллионером Джеем Гэтсби, а на противоположном берегу бухты проживают его кузина Дэйзи и её муж, повеса и аристократ, Том Бьюкенен. Так Ник оказывается вовлечённым в захватывающий мир богатых — их иллюзий, любви и обманов. Он становится свидетелем происходящего в этом мире и пишет историю невозможной любви, вечных мечтаний и человеческой трагедии, которые являются отражением современных времен и нравов.
Качество: BDRip 1080p (HDWinG)
Контейнер: MKV
Видео кодек: MPEG-4 AVC Video
Аудио кодек: DTS / AC3
Видео: MPEG-4 AVC Video / 11187 kbps / 1920x800p / 23,976 fps / 2.40:1 / 0.297 bit/pix / High@L4.1
Аудио 1: Русский / AC3 / 2.0 / 48 kHz / 192 kbps / 16-bit / Профессиональный (дублированный)
Аудио 2: Русский / AC3 / 5.1 / 48 kHz / 448 kbps / 16-bit / Одноголосый закадровый lord666
Аудио 3: English / DTS / 5.1 / 48 kHz / 1536 kbps / 16-bit / Оригинал
Навигация по главам: да

Дополнительная информация

  • Дорога №2 взята из [url=http://***/forum/viewtopic.php?t=4510245]этой[/url] раздачи, thx [url=http://***/forum/profile.php?mode=viewprofile&u=5592071]607й[/url].

Скриншот с названием фильма

Скриншоты

MediaInfo

C:\***\Великий Гэтсби (The Great Gatsby) 2013, Австралия, США, драма, мелодрама, BDRip 1080p GORESEWAGE.mkv
General
Unique ID : 212889491260899602028563035305554492380 (0xA029064C9C1D5D65B3FC002F2DC43BDC)
Complete name : C:\***\Великий Гэтсби (The Great Gatsby) 2013, Австралия, США, драма, мелодрама, BDRip 1080p GORESEWAGE.mkv
Format : Matroska
Format version : Version 4 / Version 2
File size : 13.2 GiB
Duration : 2h 22mn
Overall bit rate : 13.3 Mbps
Movie name : GORESEWAGE
Encoded date : UTC 2013-08-15 12:37:41
Writing application : mkvmerge v6.1.0 ('Old Devil') built on Mar 31 2013 15:21:18
Writing library : libebml v1.3.0 + libmatroska v1.4.0
Video #1
ID : 1
Format : AVC
Format/Info : Advanced Video Codec
Format profile : High@L4.1
Format settings, CABAC : Yes
Format settings, ReFrames : 5 frames
Codec ID : V_MPEG4/ISO/AVC
Bit rate : 10.9 Mbps
Width : 1 920 pixels
Height : 800 pixels
Display aspect ratio : 2.40:1
Frame rate mode : Variable
Original frame rate : 23.976 fps
Color space : YUV
Chroma subsampling : 4:2:0
Bit depth : 8 bits
Scan type : Progressive
Title : GORESEWAGE
Writing library : x264 core 132 r2323+704+51 d571b1c tMod [8-bit@4:2:0 X86_64]
Encoding settings : cabac=1 / ref=5 / deblock=1:-3:-3 / analyse=0x3:0x133 / me=umh / subme=11 / psy=1 / fade_compensate=0.00 / psy_rd=1.10:0.00 / mixed_ref=1 / me_range=48 / chroma_me=1 / trellis=2 / 8x8dct=1 / cqm=0 / deadzone=21,11 / fast_pskip=0 / chroma_qp_offset=-2 / threads=36 / lookahead_threads=6 / sliced_threads=0 / nr=0 / decimate=0 / interlaced=0 / bluray_compat=0 / constrained_intra=0 / fgo=0 / bframes=8 / b_pyramid=2 / b_adapt=2 / b_bias=0 / direct=3 / weightb=1 / open_gop=0 / weightp=2 / keyint=240 / keyint_min=24 / scenecut=40 / intra_refresh=0 / rc=crf / mbtree=0 / crf=18.0000 / qcomp=0.70 / qpmin=0 / qpmax=69 / qpstep=4 / ip_ratio=1.15 / pb_ratio=1.15 / aq=4:0.80 / aq-sensitivity=10.00 / aq-factor=1.00:1.00:1.00 / aq2=0 / aq3=0
Language : English
Default : Yes
Forced : No
Audio #2
ID : 2
Format : AC-3
Format/Info : Audio Coding 3
Mode extension : CM (complete main)
Format settings, Endianness : Big
Codec ID : A_AC3
Duration : 2h 22mn
Bit rate mode : Constant
Bit rate : 192 Kbps
Channel(s) : 2 channels
Channel positions : Front: L R
Sampling rate : 48.0 KHz
Bit depth : 16 bits
Compression mode : Lossy
Stream size : 195 MiB (1%)
Title : Профессиональный (дублированный) iTunes Russia
Language : Russian
Default : Yes
Forced : No
Audio #3
ID : 3
Format : AC-3
Format/Info : Audio Coding 3
Mode extension : CM (complete main)
Format settings, Endianness : Big
Codec ID : A_AC3
Duration : 2h 22mn
Bit rate mode : Constant
Bit rate : 448 Kbps
Channel(s) : 6 channels
Channel positions : Front: L C R, Side: L R, LFE
Sampling rate : 48.0 KHz
Bit depth : 16 bits
Compression mode : Lossy
Stream size : 455 MiB (3%)
Title : Одноголосый закадровый lord666
Language : Russian
Default : No
Forced : No
Audio #4
ID : 4
Format : DTS
Format/Info : Digital Theater Systems
Codec ID : A_DTS
Duration : 2h 22mn
Bit rate mode : Constant
Bit rate : 1 510 Kbps
Channel(s) : 6 channels
Channel positions : Front: L C R, Side: L R, LFE
Sampling rate : 48.0 KHz
Bit depth : 16 bits
Compression mode : Lossy
Stream size : 1.50 GiB (11%)
Title : Оригинал
Language : English
Default : No
Forced : No
Text #5
ID : 5
Format : UTF-8
Codec ID : S_TEXT/UTF8
Codec ID/Info : UTF-8 Plain Text
Title : Full Voronine
Language : Russian
Default : No
Forced : No
Text #6
ID : 6
Format : UTF-8
Codec ID : S_TEXT/UTF8
Codec ID/Info : UTF-8 Plain Text
Title : Full
Language : English
Default : No
Forced : No
Text #7
ID : 7
Format : UTF-8
Codec ID : S_TEXT/UTF8
Codec ID/Info : UTF-8 Plain Text
Title : SDH
Language : English
Default : No
Forced : No
Text #8
ID : 8
Format : UTF-8
Codec ID : S_TEXT/UTF8
Codec ID/Info : UTF-8 Plain Text
Title : SDH Colored
Language : English
Default : No
Forced : No
Menu
00:00:00.000 : en:00:00:00.000
00:11:04.080 : en:00:11:04.080
00:22:55.832 : en:00:22:55.832
00:34:26.898 : en:00:34:26.898
00:44:48.727 : en:00:44:48.727
00:55:36.333 : en:00:55:36.333
01:06:20.643 : en:01:06:20.643
01:18:27.786 : en:01:18:27.786
01:31:13.926 : en:01:31:13.926
01:44:11.954 : en:01:44:11.954
01:56:35.154 : en:01:56:35.154
02:05:46.121 : en:02:05:46.121
02:09:40.981 : en:02:09:40.981

Полноразмерные постеры

Скачать

Скачать торрент!

Как скачивать? · Что такое торрент? · Рейтинг и ограничения

Сайт не распространяет и не хранит электронные версии произведений, а лишь предоставляет доступ к создаваемому пользователями каталогу ссылок на торрент-файлы, которые содержат только списки хеш-сумм

[Профиль] [ЛС]
Показать сообщения:    
Ответить на тему

Текущее время: Сегодня 13:33

Часовой пояс: GMT + 4



Вы не можете начинать темы
Вы не можете отвечать на сообщения
Вы не можете редактировать свои сообщения
Вы не можете удалять свои сообщения
Вы не можете голосовать в опросах
Вы не можете прикреплять файлы к сообщениям
Вы не можете скачивать файлы