Принц Щелкунчик / The Nutcracker Prince (Пол Шибли / Paul Schibli) [1990, фэнтези, приключения, DVDRip] Dub (ОРТ)

Ответить на тему
 
Автор Сообщение

user ®

Стаж: 13 лет

Сообщений: 15041

Пост Пост: #1 от 16-Авг-2013 00:55

[Цитировать]

Принц Щелкунчик / The Nutcracker Prince
Страна: Канада
Жанр: фэнтези, приключения
Продолжительность: 01:10:21
Год выпуска: 1990
Перевод: Профессиональный (дублированный) ОРТ Селена Интернешнл
Русские субтитры: нет
Режиссёр: Пол Шибли / Paul Schibli
Описание: Наступил Сочельник, канун Рождества, и все члены семьи Штальбаумов радостно разворачивают свои рождественские подарки. Когда восторги улеглись, семилетняя Клара получает еще один, весьма необыкновенный подарок — таинственного Щелкунчика.
Злая ведьма Мышильда заколдовала племянника ее любимого крестного Дроссельмейера и превратила его в деревянную игрушку — Щелкунчика. Чтобы снять заклятие Щелкунчик должен завоевать любовь Клары и сразить злобного мышиного короля.
Семпл: http://multi-up.com/894253
Качество: DVDRip
Формат: AVI
Видео: 688x528 (1.30:1), 25 fps, XviD MPEG-4 ~2352 kbps avg, 0.26 bit/pixel
Аудио 1: 48 kHz, AC3 Dolby Digital, 2/0 (L,R) ch, ~192 kbps Rus
Аудио 2: 48 kHz, AC3 Dolby Digital, 6 ch, ~384.00 kbps avg Eng
Субтитры: отсутствуют

Подробные технические данные

GeneralComplete name : D:\The Nutcracker Prince.aviFormat : AVIFormat/Info : Audio Video InterleaveFile size : 1.45 GiBDuration : 1h 10mnOverall bit rate : 2 944 KbpsWriting application : VirtualDubMod 1.5.10.3 (build 2550/release)Writing library : VirtualDubMod build 2550/release
VideoID : 0Format : MPEG-4 VisualFormat profile : Advanced Simple@L5Format settings, BVOP : 1Format settings, QPel : NoFormat settings, GMC : No warppointsFormat settings, Matrix : CustomCodec ID : XVIDCodec ID/Hint : XviDDuration : 1h 10mnBit rate : 2 354 KbpsWidth : 688 pixelsHeight : 528 pixelsDisplay aspect ratio : 4:3Frame rate : 25.000 fpsColor space : YUVChroma subsampling : 4:2:0Bit depth : 8 bitsScan type : ProgressiveCompression mode : LossyBits/(Pixel*Frame) : 0.259Stream size : 1.16 GiB (80%)Writing library : XviD 65
Audio #1ID : 1Format : AC-3Format/Info : Audio Coding 3Mode extension : CM (complete main)Format settings, Endianness : BigCodec ID : 2000Duration : 1h 10mnBit rate mode : ConstantBit rate : 192 KbpsChannel(s) : 2 channelsChannel positions : Front: L RSampling rate : 48.0 KHzBit depth : 16 bitsCompression mode : LossyStream size : 96.6 MiB (7%)Alignment : Split accross interleavesInterleave, duration : 40 ms (1.00 video frame)Interleave, preload duration : 500 ms
Audio #2ID : 2Format : AC-3Format/Info : Audio Coding 3Mode extension : CM (complete main)Format settings, Endianness : BigCodec ID : 2000Duration : 1h 10mnBit rate mode : ConstantBit rate : 384 KbpsChannel(s) : 6 channelsChannel positions : Front: L C R, Side: L R, LFESampling rate : 48.0 KHzBit depth : 16 bitsCompression mode : LossyDelay relative to video : 10s 0msStream size : 193 MiB (13%)Alignment : Split accross interleavesInterleave, duration : 40 ms (1.00 video frame)Interleave, preload duration : 500 ms

Скриншоты

Скачать

Скачать торрент! Принц Щелкунчик / The Nutcracker Prince (Пол Шибли / Paul Schibli) [1990, фэнтези, приключения, DVDRip] Dub (ОРТ)

Как скачивать? · Что такое торрент? · Рейтинг и ограничения

Сайт не распространяет и не хранит электронные версии произведений, а лишь предоставляет доступ к создаваемому пользователями каталогу ссылок на торрент-файлы, которые содержат только списки хеш-сумм

[Профиль] [ЛС]
Показать сообщения:    
Ответить на тему

Текущее время: Сегодня 18:37

Часовой пояс: GMT + 4



Вы не можете начинать темы
Вы не можете отвечать на сообщения
Вы не можете редактировать свои сообщения
Вы не можете удалять свои сообщения
Вы не можете голосовать в опросах
Вы не можете прикреплять файлы к сообщениям
Вы не можете скачивать файлы