Месть патриотов / Revenge Of The Patriots / The Ming Patriots / Zhong yuan biao ju (Оуян Цзюнь / Ulysses Au-Yeung Jun) [1976, Гонконг, боевые искусства, VHSRip] VO (Jet)

Ответить на тему
 
Автор Сообщение

user ®

Стаж: 11 лет

Сообщений: 15151

Пост Пост: #1 от 13-Авг-2013 13:40

[Цитировать]

Месть патриотов / Revenge Of The Patriots / The Ming Patriots / Zhong yuan biao ju
Страна: Гонконг
Жанр: боевые искусства
Год выпуска: 1976
Продолжительность: 01:30:27
Перевод: Одноголосый закадровый Jet
Cубтитры: нет
Режиссер: Оуян Цзюнь / Ulysses Au-Yeung Jun
В ролях: Брюс Лай, Картер Вонг, Майкл Чан, Чжан И, Цзя Линь, Чэнь Хуэйлоу
Описание: Китай, 17 век. Времена падения династии Мин и прихода к власти династии Цин. Оставшаяся в живых принцесса династии Мин бежит из Пекина вместе с посланием покойного императора и семейными драгоценностями. Её цель - найти главнокомандующего Чао и попытаться восстановить династию Мин. Несколько молодых людей сопровождают принцессу и помогают ей преодолеть все трудности. (В. Береговых)
Благодарность: За исходник, перевод, озвучивание и описание благодарность выражается Виктору Береговых (Jet).
Сэмпл: http://multi-up.com/893375
Качество видео: VHSRip
Формат видео: AVI
Видео: 672x384 (1.75:1), 23.976 fps, XviD build 50 ~2026 kbps avg, 0.33 bit/pixel
Аудио: 48 kHz, MPEG Layer 3, 2 ch, ~128.00 kbps avg

MediaInfo

Format : AVI
Format/Info : Audio Video Interleave
File size : 1,37 Гбайт
Duration : 1 ч. 30 м.
Overall bit rate : 2164 Кбит/сек
Writing application : VirtualDubMod 1.5.10.3 | www.virtualdub-fr.org || (build 2550/release)
Writing library : VirtualDubMod build 2550/release
Видео
ID : 0
Format : MPEG-4 Visual
Format profile : Advanced Simple@L5
Format settings, BVOP : 2
Format settings, QPel : Нет
Format settings, GMC : Без точки перехода
Format settings, Matrix : Default (MPEG)
Codec ID : XVID
Codec ID/Hint : XviD
Duration : 1 ч. 30 м.
Bit rate : 2027 Кбит/сек
Width : 672 пикселя
Height : 384 пикселя
Display aspect ratio : 16:9
Frame rate : 23,976 кадра/сек
Color space : YUV
Chroma subsampling : 4:2:0
Bit depth : 8 бит
Scan type : Прогрессивная
Compression mode : С потерями
Bits/(Pixel*Frame) : 0.328
Stream size : 1,28 Гбайт (94%)
Writing library : XviD 1.2.1 (UTC 2008-12-04)
Аудио
ID : 1
Format : MPEG Audio
Format version : Version 1
Format profile : Layer 3
Codec ID : 55
Codec ID/Hint : MP3
Duration : 1 ч. 30 м.
Bit rate mode : Постоянный
Bit rate : 128 Кбит/сек
Channel(s) : 2 канала
Sampling rate : 48,0 КГц
Compression mode : С потерями
Stream size : 82,8 Мбайт (6%)
Alignment : Соединение по промежуткам
Interleave, duration : 42 мс. (1,00 видеокадр)
Interleave, preload duration : 504 мс.
Writing library : LAME3.99r
Encoding settings : -m s -V 4 -q 2 -lowpass 17 -b 128

Скриншот c названием фильма

Скриншоты

Скачать

Скачать торрент! Месть патриотов / Revenge Of The Patriots / The Ming Patriots / Zhong yuan biao ju (Оуян Цзюнь / Ulysses Au-Yeung Jun) [1976, Гонконг, боевые искусства, VHSRip] VO (Jet)

Как скачивать? · Что такое торрент? · Рейтинг и ограничения

Сайт не распространяет и не хранит электронные версии произведений, а лишь предоставляет доступ к создаваемому пользователями каталогу ссылок на торрент-файлы, которые содержат только списки хеш-сумм

[Профиль] [ЛС]
Показать сообщения:    
Ответить на тему

Текущее время: Сегодня 10:50

Часовой пояс: GMT + 4



Вы не можете начинать темы
Вы не можете отвечать на сообщения
Вы не можете редактировать свои сообщения
Вы не можете удалять свои сообщения
Вы не можете голосовать в опросах
Вы не можете прикреплять файлы к сообщениям
Вы не можете скачивать файлы