Куколка (Юлия Завьялова) [2011, мелодрама, короткометражный, TVRip]

Ответить на тему
 
Автор Сообщение

user ®

Стаж: 7 лет 7 месяцев

Сообщений: 20008

Пост Пост: #1 от 12-Авг-2013 02:40

[Цитировать]

Куколка
Жанр:
мелодрама, короткометражный
Год выпуска:
2011
Продолжительность:
00:15:55
Режиссёр:
Юлия Завьялова
В ролях:
Ирина Чериченко, Александра Антонова, Розалия Муртазова...
Описание:
Ответ на вопрос, - Чем живет твой ребенок? - "проверочный тест" для матери 9-летней девочки Кати...
Сэмпл:
http://www.sendspace.com/file/lddiqv
Качество видео:
TVRip
Формат видео:
MPEG-PS
Видео:
MPEG2 Video, 720x576 (4:3) 25.00fps, ~3427, 0.331 bit/pixel
Аудио:
MPEG Audio, 48000Hz, 2/0 (L,R) ch, 192 Kbps

MediaInfo

Полное имя : G:\DVD\Куколка (2011)\Куколка.mpg
Формат : MPEG-PS
Размер файла : 421 Мбайт
Продолжительность : 15 м.
Общий поток : 3692 Кбит/сек
Видео
Идентификатор : 224 (0xE0)
Формат : MPEG Video
Версия формата : Version 2
Профиль формата : Main@Main
Параметр BVOP формата : Нет
Параметр матрицы формата : По умолчанию
Продолжительность : 15 м.
Вид битрейта : Переменный
Битрейт : 3427 Кбит/сек
Ширина : 720 пикселей
Высота : 576 пикселей
Соотношение сторон : 4:3
Частота кадров : 25,000 кадров/сек
Стандарт вещания : PAL
Цветовое пространство : YUV
Субдискретизация насыщенности : 4:2:0
Битовая глубина : 8 бит
Тип развёртки : Прогрессивная
Метод сжатия : С потерями
Бит/(Пиксели*Кадры) : 0.331
Размер потока : 390 Мбайт (93%)
Аудио
Идентификатор : 192 (0xC0)
Формат : MPEG Audio
Версия формата : Version 1
Профиль формата : Layer 2
Продолжительность : 15 м.
Вид битрейта : Постоянный
Битрейт : 192 Кбит/сек
Каналы : 2 канала
Частота : 48,0 КГц
Метод сжатия : С потерями
Размер потока : 21,9 Мбайт (5%)

Скриншот c названием фильма

Скриншоты



Скачать

Скачать торрент!

Как скачивать? · Что такое торрент? · Рейтинг и ограничения

Сайт не распространяет и не хранит электронные версии произведений, а лишь предоставляет доступ к создаваемому пользователями каталогу ссылок на торрент-файлы, которые содержат только списки хеш-сумм

[Профиль] [ЛС]
Показать сообщения:    
Ответить на тему

Текущее время: Сегодня 08:27

Часовой пояс: GMT + 4



Вы не можете начинать темы
Вы не можете отвечать на сообщения
Вы не можете редактировать свои сообщения
Вы не можете удалять свои сообщения
Вы не можете голосовать в опросах
Вы не можете прикреплять файлы к сообщениям
Вы не можете скачивать файлы