Я объявляю войну / I Declare War (Джейсон Лапейр, Роберт Уилсон / Jason Lapeyre, Robert Wilson) [2012, Канада, боевик, драма, комедия, WEB-DL]VO (den904) + Sub Rus + Original Eng

Ответить на тему
 
Автор Сообщение

user ®

Стаж: 7 лет 7 месяцев

Сообщений: 20008

Пост Пост: #1 от 11-Авг-2013 22:20

[Цитировать]

Я объявляю войну / I Declare War
Страна: Канада
Жанр: боевик, драма, комедия
Год выпуска: 2012
Продолжительность: 01:34
Перевод: Одноголосый закадровый (den904)
Cубтитры: русские
Оригинальная аудиодорожка: английский
Режиссер: Джейсон Лапейр, Роберт Уилсон / Jason Lapeyre, Robert Wilson
В ролях: Сиам Ю, Гейдж Манро, Майкл Френд, Эйдан Гувейя, Маккензи Манро, Алекс Кардильо, Дайсон Файк, Спенсер Хоус, Энди Рейд, Колтон Стюарт
Описание: Каждый день после школы, две группы тринадцатилетних друзей играют в войну в местном лесу. Они делают оружие из палок, старых игрушек. Играют для забавы. Но однажды игра выходит из-под контроля.
Сэмпл: http://multi-up.com/892268
Качество видео: WEB-DL
Формат видео: MKV
Видео: H264-MPEG-4 AVC (part 10) (avc1), 1280x532, 23.976 fps, 3826 Кбит/сек
Аудио: AC3, 48000 Hz, 384 Кбит/сек, 6 ch
Аудио 2: MPEG Audio, 48000 Hz, 256 Кбит/сек, 2 ch
Формат субтитров: softsub (SRT)

MediaInfo

Общее
Уникальный идентификатор : 317471931385328261554994903832190301155 (0xEED6DEB2CC5C9A6F91DF4473C6E8B3E3)
Полное имя : .../I Declare War/I Declare War.mkv
Формат : Matroska
Версия формата : Version 4 / Version 2
Размер файла : 2,98 Гбайт
Продолжительность : 1 ч. 33 м.
Общий поток : 4557 Кбит/сек
Название фильма : I Declare War
Дата кодирования : UTC 2013-08-08 19:26:34
Программа кодирования : mkvmerge v6.2.0 ('Promised Land') built on Apr 28 2013 18:50:30
Библиотека кодирования : libebml v1.3.0 + libmatroska v1.4.0
Видео
Идентификатор : 1
Формат : AVC
Формат/Информация : Advanced Video Codec
Профиль формата : Main@L3.1
Параметр CABAC формата : Нет
Параметр ReFrames формата : 2 кадра
Идентификатор кодека : V_MPEG4/ISO/AVC
Продолжительность : 1 ч. 33 м.
Битрейт : 3826 Кбит/сек
Ширина : 1280 пикселей
Высота : 532 пикселя
Соотношение сторон : 2,40:1
Режим частоты кадров : Постоянный
Частота кадров : 23,976 кадра/сек
Цветовое пространство : YUV
Субдискретизация насыщенности : 4:2:0
Битовая глубина : 8 бит
Тип развёртки : Прогрессивная
Бит/(Пиксели*Кадры) : 0.234
Размер потока : 2,51 Гбайт (84%)
Заголовок : I Declare War
Язык : English
Default : Да
Forced : Нет
Основные цвета : BT.709
Характеристики трансфера : BT.709
Коэффициенты матрицы : BT.709
Аудио #1
Идентификатор : 2
Формат : AC-3
Формат/Информация : Audio Coding 3
Расширение режима : CM (complete main)
Параметр Endianness формата : Big
Идентификатор кодека : A_AC3
Продолжительность : 1 ч. 33 м.
Вид битрейта : Постоянный
Битрейт : 384 Кбит/сек
Каналы : 6 каналов
Расположение каналов : Front: L C R, Side: L R, LFE
Частота : 48,0 КГц
Битовая глубина : 16 бит
Метод сжатия : С потерями
Размер потока : 258 Мбайт (8%)
Заголовок : English
Язык : English
Default : Нет
Forced : Нет
Аудио #2
Идентификатор : 3
Формат : MPEG Audio
Версия формата : Version 1
Профиль формата : Layer 3
Режим : Joint stereo
Идентификатор кодека : A_MPEG/L3
Идентификатор кодека/Подсказка : MP3
Продолжительность : 1 ч. 33 м.
Вид битрейта : Постоянный
Битрейт : 256 Кбит/сек
Каналы : 2 канала
Частота : 48,0 КГц
Метод сжатия : С потерями
Размер потока : 172 Мбайт (6%)
Заголовок : Russian
Библиотека кодирования : LAME3.99.5
Язык : Russian
Default : Да
Forced : Нет
Текст
Идентификатор : 4
Формат : UTF-8
Идентификатор кодека : S_TEXT/UTF8
Идентификатор кодека/Информация : UTF-8 Plain Text
Заголовок : Russian
Язык : Russian
Default : Да
Forced : Нет
Меню
00:00:00.000 : en:PK's Soldiers
00:08:11.000 : en:Ready For Anything
00:16:51.000 : en:Coup d'etat
00:23:52.000 : en:A Ruse
00:32:09.000 : en:Prisoner Of War
00:40:09.000 : en:Battle Of The Bees
00:47:40.000 : en:Sacrificing A Pawn
00:57:30.000 : en:An Enemy Within
01:02:41.000 : en:Divide And Conquer
01:10:40.000 : en:Capture The Flag
01:21:38.000 : en:Win At All Cost
01:30:38.000 : en:End Credits

Скриншот c названием фильма

Скриншоты

Скачать

Скачать торрент!

Как скачивать? · Что такое торрент? · Рейтинг и ограничения

Сайт не распространяет и не хранит электронные версии произведений, а лишь предоставляет доступ к создаваемому пользователями каталогу ссылок на торрент-файлы, которые содержат только списки хеш-сумм

[Профиль] [ЛС]
Показать сообщения:    
Ответить на тему

Текущее время: Сегодня 21:56

Часовой пояс: GMT + 4



Вы не можете начинать темы
Вы не можете отвечать на сообщения
Вы не можете редактировать свои сообщения
Вы не можете удалять свои сообщения
Вы не можете голосовать в опросах
Вы не можете прикреплять файлы к сообщениям
Вы не можете скачивать файлы