Проповедник с пулеметом / Machine Gun Preacher (Марк Форстер / Marc Forster) [2011, США, боевик, драма, криминал, биография, BDRip 720p] [NOR Transfer] Dub + Original (Eng) + Sub (Rus, Eng)

Ответить на тему
 
Автор Сообщение

user ®

Стаж: 7 лет 7 месяцев

Сообщений: 20008

Пост Пост: #1 от 11-Авг-2013 19:10

[Цитировать]

Проповедник с пулеметом / Machine Gun Preacher
Страна: США
Жанр: боевик, драма, криминал, биография
Год выпуска: 2011
Продолжительность: 02:08:44
Перевод: Профессиональный (дублированный) Дубляж, BD RUS
Cубтитры: русские, английские
Оригинальная аудиодорожка: английский
Режиссер: Марк Форстер / Marc Forster
В ролях: Джерард Батлер, Мишель Монахэн, Кэти Бейкер, Майкл Шеннон, Мадлен Кэрролл, Соулеймейн Сай Савейн, Грант Р. Краузе, Ривис Грэхэм, Питер Кэри, Барбара Ковен
Описание: Байкер Сэм Чайлдерс имел множество проблем с законом, но после выхода из тюрьмы, вняв мольбам жены Линн, начал посещать церковь. Бывшего преступника словно подменили: он стал примерным прихожанином, основал строительную компанию и сам возвел с нуля протестантский храм для тех, кого благополучные американцы презрительно именовали «отбросами общества»... Ровное течение жизни Сэма меняется после миссионерской поездки в Уганду и Судан.
Проникнувшись состраданием к африканским детям, он решает основать приют, в котором те чувствовали бы себя в безопасности от боевиков Господней армии Сопротивления, набирающих себе солдат и сексуальных рабынь даже среди малолетних. Своих подопечных, если потребуется, Сэм готов защищать с оружием в руках. Однако в своем рвении Чайлдерс забывает о том, что обратной стороной любого благого порыва может стать одержимость...
Сэмпл: http://multi-up.com/891851
Тип релиза: BDRip 720p
Контейнер: MKV
Видео: 1280x534 at 24.000 fps (True24p), x264@L4.1, 2pass, ~7 300 kbps avg
Аудио: Russian: 48 kHz, DTS, 3/2 (L,C,R,l,r) + LFE ch, ~1510.00 kbps avg |Дубляж, BD RUS|
Аудио 2: English: 48 kHz, DTS, 3/2 (L,C,R,l,r) + LFE ch, ~1510.00 kbps avg
Формат субтитров: softsub (UTF-8/ASS)
Релиз:

MediaInfo

General
Unique ID : 215100472480114398171142801468749410573 (0xA1D2D816F232B32A974A0B1180C2710D)
Complete name : G:\Machine.Gun.Preacher.2011.720p.Bluray.x264.Rus.Eng.HDCLUB.mkv
Format : Matroska
Format version : Version 2
File size : 9.27 GiB
Duration : 2h 12mn
Overall bit rate : 10.0 Mbps
Movie name : Machine Gun Preacher (2011) - Release for HDCLUB
Encoded date : UTC 2012-06-16 11:46:25
Writing application : mkvmerge v3.4.0 ('Rapunzel') сборка от May 15 2010 09:38:20
Writing library : libebml v0.8.0 + libmatroska v0.9.0
Video
ID : 1
Format : AVC
Format/Info : Advanced Video Codec
Format profile : High@L4.1
Format settings, CABAC : Yes
Format settings, ReFrames : 9 frames
Codec ID : V_MPEG4/ISO/AVC
Duration : 2h 12mn
Bit rate : 6 827 Kbps
Width : 1 280 pixels
Height : 534 pixels
Display aspect ratio : 2.40:1
Frame rate mode : Constant
Frame rate : 24.000 fps
Color space : YUV
Chroma subsampling : 4:2:0
Bit depth : 8 bits
Scan type : Progressive
Bits/(Pixel*Frame) : 0.416
Stream size : 6.30 GiB (68%)
Title : Release for HDCLUB
Writing library : x264 core 120 r2164 da19765
Encoding settings : ????????????????????????????????????????????????????????????????????????????????????????????????????????????????????????????????????????????????????????????????????????????????????????????????????????????
???????????????????????????????????????????????????????????????????????????????????????????????????????????????????????????????????????????????????????????????????????????????????????????????????????????????????????????????????????????
???????????????????????????????????????????????????????????????????????????????????????????????????????????????????????????????
Language : English
Default : No
Forced : No
Audio #1
ID : 2
Format : DTS
Format/Info : Digital Theater Systems
Mode : 16
Format settings, Endianness : Big
Codec ID : A_DTS
Duration : 2h 12mn
Bit rate mode : Constant
Bit rate : 1 510 Kbps
Channel(s) : 6 channels
Channel positions : Front: L C R, Side: L R, LFE
Sampling rate : 48.0 KHz
Bit depth : 16 bits
Compression mode : Lossy
Stream size : 1.39 GiB (15%)
Language : Russian
Default : Yes
Forced : No
Audio #2
ID : 3
Format : DTS
Format/Info : Digital Theater Systems
Mode : 16
Format settings, Endianness : Big
Codec ID : A_DTS
Duration : 2h 12mn
Bit rate mode : Constant
Bit rate : 1 509 Kbps
Channel(s) : 6 channels
Channel positions : Front: L C R, Side: L R, LFE
Sampling rate : 48.0 KHz
Bit depth : 24 bits
Compression mode : Lossy
Stream size : 1.39 GiB (15%)
Language : English
Default : No
Forced : No
Text #1
ID : 4
Format : UTF-8
Codec ID : S_TEXT/UTF8
Codec ID/Info : UTF-8 Plain Text
Language : Russian
Default : No
Forced : No
Text #2
ID : 5
Format : ASS
Codec ID : S_TEXT/ASS
Codec ID/Info : Advanced Sub Station Alpha
Compression mode : Lossless
Language : English
Default : No
Forced : No
Menu
00:00:00.000 : :Chapter 01
00:08:50.791 : :Chapter 02
00:16:54.666 : :Chapter 03
00:25:17.333 : :Chapter 04
00:32:27.166 : :Chapter 05
00:39:44.708 : :Chapter 06
00:48:33.041 : :Chapter 07
00:56:52.083 : :Chapter 08
01:04:27.958 : :Chapter 09
01:11:36.958 : :Chapter 10
01:20:10.041 : :Chapter 11
01:29:11.125 : :Chapter 12
01:36:51.916 : :Chapter 13
01:43:40.666 : :Chapter 14
01:52:32.583 : :Chapter 15
02:02:50.166 : :Chapter 16

Скриншоты

Скачать

Скачать торрент!

Как скачивать? · Что такое торрент? · Рейтинг и ограничения

Сайт не распространяет и не хранит электронные версии произведений, а лишь предоставляет доступ к создаваемому пользователями каталогу ссылок на торрент-файлы, которые содержат только списки хеш-сумм

[Профиль] [ЛС]
Показать сообщения:    
Ответить на тему

Текущее время: Сегодня 05:57

Часовой пояс: GMT + 4



Вы не можете начинать темы
Вы не можете отвечать на сообщения
Вы не можете редактировать свои сообщения
Вы не можете удалять свои сообщения
Вы не можете голосовать в опросах
Вы не можете прикреплять файлы к сообщениям
Вы не можете скачивать файлы