Татуировщик / The Tattooist (Питер Бюргер / Peter Burger) [2007, Нидерланды, Новая Зеландия, Сингапур, ужасы, триллер, BDRip 720p] DVO + Sub Eng + Original Eng

Ответить на тему
 
Автор Сообщение

user ®

Стаж: 7 лет 7 месяцев

Сообщений: 20008

Пост Пост: #1 от 11-Авг-2013 19:10

[Цитировать]

Татуировщик / The Tattooist
Страна: Нидерланды, Новая Зеландия, Сингапур
Студия: Eyeworks Touchdown, Mediacorp Raintree Pictures, New Zealand Film Commission
Жанр: ужасы, триллер
Год выпуска: 2007
Продолжительность: 01:31:12
Перевод: Профессиональный (двухголосый закадровый)
Cубтитры: английские
Оригинальная аудиодорожка: английский
Режиссер: Питер Бюргер / Peter Burger
В ролях: Джейсон Бер, Миа Блейк, Дэвид Фейн, Робби Магасива, Каролин Чон, Майкл Херст, Нэтаниэл Лис, Джон Бах, Тимоти Бальм, Чен Бангжи, Джаред Блэкистон, Элисон Брюс, Стюарт Девени, Изабелла Галуццо, Пип Холл, Лорен Джексон, Мема Майли, Мэттью Ридж, Тревор Сай Луи
Описание: Сюжет рассказывает историю татуировщика, которого завораживают самоанские традиции украшения человеческого кожного покрова. Рьяное желание овладеть секретами мастерства сталкивает протагониста с местным мистицизмом и выпущенным на свободу смертельно опасным духом…


Тип релиза: BDRip 720p
Контейнер: MKV
Видео: MPEG-4 AVC Video / 5 741 kbps / 1280x544p / 23,976 fps / 2.35:1 / High Profile 4.1
Аудио 1: Russian / Dolby Digital Audio / 2.0 / 48 kHz / 192 kbps
Аудио 2: English / DTS Audio / 5.1 / 48 kHz / 1509 kbps / 24-bit
Формат субтитров: softsub (SRT)

MediaInfo / Log

Log

---[Information] [10.08.2013 17:13:56] raw [info]: 1280x544p 1:1 @ 24000/1001 fps (cfr)
---[Information] [10.08.2013 17:13:56] x264 [info]: using SAR=1/1
---[Information] [10.08.2013 17:13:56] x264 [info]: using cpu capabilities: MMX2 SSE2Fast SSSE3 SSE4.2 AVX
---[Information] [10.08.2013 17:13:56] x264 [info]: profile High, level 4.1
---[Information] [10.08.2013 23:46:42] x264 [info]: frame I:1141  Avg QP:15.33  size:105657
---[Information] [10.08.2013 23:46:42] x264 [info]: frame P:25543 Avg QP:16.61  size: 59444
---[Information] [10.08.2013 23:46:42] x264 [info]: frame B:104501 Avg QP:18.59  size: 22866
---[Information] [10.08.2013 23:46:42] x264 [info]: consecutive B-frames:  1.5%  1.6%  3.6% 13.1% 17.3% 52.2%  7.3%  1.1%  1.2%  1.2%
---[Information] [10.08.2013 23:46:42] x264 [info]: mb I  I16..4: 11.1% 76.1% 12.8%
---[Information] [10.08.2013 23:46:42] x264 [info]: mb P  I16..4:  1.2% 28.9%  1.7%  P16..4: 21.3% 27.7% 12.5%  2.1%  0.1%    skip: 4.4%
---[Information] [10.08.2013 23:46:42] x264 [info]: mb B  I16..4:  0.1%  3.3%  0.1%  B16..8: 32.4% 20.8%  3.7%  direct:14.1%  skip:25.7%  L0:37.8% L1:37.7% BI:24.4%
---[Information] [10.08.2013 23:46:42] x264 [info]: 8x8 transform intra:90.6% inter:51.3%
---[Information] [10.08.2013 23:46:42] x264 [info]: direct mvs  spatial:99.8% temporal:0.2%
---[Information] [10.08.2013 23:46:42] x264 [info]: coded y,uvDC,uvAC intra: 97.3% 85.1% 66.5% inter: 46.3% 29.9% 10.5%
---[Information] [10.08.2013 23:46:42] x264 [info]: i16 v,h,dc,p: 19%  5% 18% 58%
---[Information] [10.08.2013 23:46:42] x264 [info]: i8 v,h,dc,ddl,ddr,vr,hd,vl,hu: 10%  8% 15%  9% 12% 11% 11% 11% 13%
---[Information] [10.08.2013 23:46:42] x264 [info]: i4 v,h,dc,ddl,ddr,vr,hd,vl,hu:  9%  7%  6% 10% 16% 14% 13% 12% 13%
---[Information] [10.08.2013 23:46:42] x264 [info]: i8c dc,h,v,p: 40% 24% 20% 16%
---[Information] [10.08.2013 23:46:42] x264 [info]: Weighted P-Frames: Y:6.6% UV:4.0%
---[Information] [10.08.2013 23:46:42] x264 [info]: ref P L0: 38.4% 10.2% 20.2%  7.3%  6.8%  4.3%  4.2%  2.2%  2.4%  1.8%  2.0%  0.1%  0.0%
---[Information] [10.08.2013 23:46:42] x264 [info]: ref B L0: 83.1%  8.9%  3.1%  1.6%  1.0%  0.8%  0.6%  0.4%  0.3%  0.2%
---[Information] [10.08.2013 23:46:42] x264 [info]: ref B L1: 96.6%  3.4%
---[Information] [10.08.2013 23:46:42] x264 [info]: kb/s:5890.05
General
Unique ID                                : 251557261868473599064619350881064499031 (0xBD402A94FFEE61FFB8C5B214638CB757)
Complete name                            The Tattooist.2007.BDRip720p_[***].mkv
Format                                   : Matroska
Format version                           : Version 4 / Version 2
File size                                : 4.84 GiB
Duration                                 : 1h 31mn
Overall bit rate                         : 7 594 Kbps
Movie name                               : The Tattooist.2007_Deerhoof
Encoded date                             : UTC 2013-08-11 12:54:42
Writing application                      : mkvmerge v6.3.0 ('You can't stop me!') built on Jun 28 2013 20:09:41
Writing library                          : libebml v1.3.0 + libmatroska v1.4.0
Video
ID                                       : 1
Format                                   : AVC
Format/Info                              : Advanced Video Codec
Format profile                           : High@L4.1
Format settings, CABAC                   : Yes
Format settings, ReFrames                : 11 frames
Codec ID                                 : V_MPEG4/ISO/AVC
Duration                                 : 1h 31mn
Bit rate                                 : 5 741 Kbps
Width                                    : 1 280 pixels
Height                                   : 544 pixels
Display aspect ratio                     : 2.35:1
Frame rate mode                          : Constant
Frame rate                               : 23.976 fps
Color space                              : YUV
Chroma subsampling                       : 4:2:0
Bit depth                                : 8 bits
Scan type                                : Progressive
Bits/(Pixel*Frame)                       : 0.344
Stream size                              : 3.66 GiB (76%)
Title                                    : The Tattooist.2007_[***]
Writing library                          : x264 core 133 r2334 a3ac64b
Encoding settings                        : cabac=1 / ref=11 / deblock=1:-3:-2 / analyse=0x3:0x133 / me=umh / subme=11 / psy=1 / psy_rd=1.00:0.10 / mixed_ref=1 / me_range=32 / chroma_me=1 / trellis=2 / 8x8dct=1 / cqm=0 / deadzone=21,11 / fast_pskip=0 / chroma_qp_offset=-3 / threads=6 / lookahead_threads=1 / sliced_threads=0 / nr=0 / decimate=0 / interlaced=0 / bluray_compat=0 / constrained_intra=0 / bframes=9 / b_pyramid=2 / b_adapt=2 / b_bias=0 / direct=3 / weightb=1 / open_gop=0 / weightp=2 / keyint=240 / keyint_min=23 / scenecut=40 / intra_refresh=0 / rc_lookahead=60 / rc=crf / mbtree=0 / crf=17.0 / qcomp=0.60 / qpmin=0 / qpmax=69 / qpstep=4 / vbv_maxrate=45000 / vbv_bufsize=40000 / crf_max=0.0 / nal_hrd=none / ip_ratio=1.40 / pb_ratio=1.30 / aq=2:0.90
Language                                 : English
Default                                  : Yes
Forced                                   : No
Audio #1
ID                                       : 2
Format                                   : AC-3
Format/Info                              : Audio Coding 3
Mode extension                           : CM (complete main)
Format settings, Endianness              : Big
Codec ID                                 : A_AC3
Duration                                 : 1h 31mn
Bit rate mode                            : Constant
Bit rate                                 : 192 Kbps
Channel(s)                               : 2 channels
Channel positions                        : Front: L R
Sampling rate                            : 48.0 KHz
Bit depth                                : 16 bits
Compression mode                         : Lossy
Stream size                              : 125 MiB (3%)
Title                                    : Профессиональный (двухголосый закадровый)
Language                                 : Russian
Default                                  : Yes
Forced                                   : No
Audio #2
ID                                       : 3
Format                                   : DTS
Format/Info                              : Digital Theater Systems
Mode                                     : 16
Format settings, Endianness              : Big
Codec ID                                 : A_DTS
Duration                                 : 1h 31mn
Bit rate mode                            : Constant
Bit rate                                 : 1 509 Kbps
Channel(s)                               : 6 channels
Channel positions                        : Front: L C R, Side: L R, LFE
Sampling rate                            : 48.0 KHz
Bit depth                                : 24 bits
Compression mode                         : Lossy
Stream size                              : 984 MiB (20%)
Language                                 : English
Default                                  : No
Forced                                   : No
Text
ID                                       : 4
Format                                   : UTF-8
Codec ID                                 : S_TEXT/UTF8
Codec ID/Info                            : UTF-8 Plain Text
Language                                 : English
Default                                  : No
Forced                                   : No
Menu
00:00:00.000                             : :Chapter 01
00:08:40.311                             : :Chapter 02
00:14:16.397                             : :Chapter 03
00:21:28.620                             : :Chapter 04
00:27:37.864                             : :Chapter 05
00:36:45.036                             : :Chapter 06
00:43:54.465                             : :Chapter 07
00:49:31.677                             : :Chapter 08
00:55:56.186                             : :Chapter 09
01:00:07.729                             : :Chapter 10
01:09:48.058                             : :Chapter 11
01:18:20.654                             : :Chapter 12

Скриншоты

Скачать

Скачать торрент!

Как скачивать? · Что такое торрент? · Рейтинг и ограничения

Сайт не распространяет и не хранит электронные версии произведений, а лишь предоставляет доступ к создаваемому пользователями каталогу ссылок на торрент-файлы, которые содержат только списки хеш-сумм

[Профиль] [ЛС]
Показать сообщения:    
Ответить на тему

Текущее время: Сегодня 04:29

Часовой пояс: GMT + 4



Вы не можете начинать темы
Вы не можете отвечать на сообщения
Вы не можете редактировать свои сообщения
Вы не можете удалять свои сообщения
Вы не можете голосовать в опросах
Вы не можете прикреплять файлы к сообщениям
Вы не можете скачивать файлы