Тюремный курорт / Клаб Фед / Club Fed (Нэт Кристиан / Nat Christian) [1990, США, комедия, HDTV 1080i] MVO (НТВ+) + AVO (Юрий Живов)

Ответить на тему
 
Автор Сообщение

user ®

Стаж: 7 лет 7 месяцев

Сообщений: 20008

Пост Пост: #1 от 11-Авг-2013 16:00

[Цитировать]

Тюремный курорт / Клаб Фед / Club Fed
Страна: США
Студия: RU-MAR FILMS
Жанр: комедия
Год выпуска: 1990
Продолжительность: 01:29:25
Перевод 1: Профессиональный (многоголосый закадровый) НТВ+
Перевод 2: Авторский (одноголосый закадровый) Юрий Живов
Cубтитры: нет
Оригинальная аудиодорожка: нет
Режиссер: Нэт Кристиан / Nat Christian
В ролях: Берт Янг, Аллен Гарфилд, Джуди Лэндерс, Лэнс Кинси, Шерман Хемзли, Карен Блэк, Джозеф Кампанелла, Мэри Воронов, Дебби Ли Кэррингтон, Сет Джаффе...
Описание: Что такое "Алькатрас"? Знаменитая тюрьма на острове близ побережья США. А что такое "Синг-Синг"? Другая знаменитая тюрьма на другом острове близ другого побережья. А где же находится "Клаб Фед"? А где бы ни находилась! Главное - что само ее существование вызывало возмущение у тех американцев, кто считал, что проблему преступности необходимо решать ужесточением, а не смягчением системы наказаний. И в "Клаб Фед" с особым заданием был послан Хауард Полк... Итак, компания, состоящая из многосерийной "Полицейской академии", "Школы стюардесс", "Академии нравов", "Похоронной академии" и прочих фарсовых комедий, пополнилась "тюремной академией" - фильмом "Клаб Фед" о тюрьме, где заключенные перевоспитываются посредством супероблегченного режима и всяческих привилегий.

Доп. информация: За авторский одноголосый перевод спсибо Dreven и alenavova
Тип релиза: HDTV 1080i
Контейнер: MKV
Видео: AVC 1920x1080 (16:9) 25.0fps Bit rate 6313Kbps
Аудио 1: MP2 48.0KHz 2ch 192 Kbps rus
Аудио 2: AC3 48.0KHz 2ch 192 Kbps rus

MediaInfo

General
Complete name : E:\torrent\Turemnyi kurort_HDTV 1080i.mkv
Format : Matroska
File size : 4.27 GiB
Duration : 1h 29mn
Overall bit rate : 6 833 Kbps
Encoded date : UTC 2013-08-11 06:30:26
Writing application : mkvmerge v5.7.0 ('The Whirlwind') built on Jul 8 2012 20:08:51
Writing library : libebml v1.2.3 + libmatroska v1.3.0
Video
ID : 1
Format : AVC
Format/Info : Advanced Video Codec
Format profile : High@L4.0
Format settings, CABAC : Yes
Format settings, ReFrames : 3 frames
Format settings, GOP : M=1, N=64
Muxing mode : Container profile=Unknown@4.0
Codec ID : V_MPEG4/ISO/AVC
Duration : 1h 29mn
Bit rate : 6 313 Kbps
Width : 1 920 pixels
Height : 1 080 pixels
Display aspect ratio : 16:9
Frame rate : 50.000 fps
Original frame rate : 25.000 fps
Standard : Component
Color space : YUV
Chroma subsampling : 4:2:0
Bit depth : 8 bits
Scan type : Interlaced
Scan order : Top Field First
Bits/(Pixel*Frame) : 0.061
Stream size : 3.94 GiB (92%)
Title : Turemnyi kurort_HDTV 1080i
Color primaries : BT.709-5, BT.1361, IEC 61966-2-4, SMPTE RP177
Transfer characteristics : BT.709-5, BT.1361
Matrix coefficients : BT.709-5, BT.1361, IEC 61966-2-4 709, SMPTE RP177
Audio #1
ID : 2
Format : MPEG Audio
Format version : Version 1
Format profile : Layer 2
Codec ID : A_MPEG/L2
Codec ID/Hint : MP2
Duration : 1h 29mn
Bit rate mode : Constant
Bit rate : 192 Kbps
Channel(s) : 2 channels
Sampling rate : 48.0 KHz
Video delay : 26ms
Stream size : 123 MiB (3%)
Title : Turemnyi kurort_MP2_DVO_TPO Red Media
Language : Russian
Audio #2
ID : 3
Format : AC-3
Format/Info : Audio Coding 3
Mode extension : CM (complete main)
Codec ID : A_AC3
Duration : 1h 29mn
Bit rate mode : Constant
Bit rate : 192 Kbps
Channel(s) : 2 channels
Channel positions : Front: L R
Sampling rate : 48.0 KHz
Bit depth : 16 bits
Stream size : 123 MiB (3%)
Title : Turemnyi kurort_MP2_AVO_Uriy Zhivov
Language : Russian

Скриншот с названием фильма

Скриншоты


Скачать

Скачать торрент!

Как скачивать? · Что такое торрент? · Рейтинг и ограничения

Сайт не распространяет и не хранит электронные версии произведений, а лишь предоставляет доступ к создаваемому пользователями каталогу ссылок на торрент-файлы, которые содержат только списки хеш-сумм

[Профиль] [ЛС]
Показать сообщения:    
Ответить на тему

Текущее время: Сегодня 22:33

Часовой пояс: GMT + 4



Вы не можете начинать темы
Вы не можете отвечать на сообщения
Вы не можете редактировать свои сообщения
Вы не можете удалять свои сообщения
Вы не можете голосовать в опросах
Вы не можете прикреплять файлы к сообщениям
Вы не можете скачивать файлы