Али-Баба и Марджина / Alibaba Marjinaa (Кедар Капур / Kedar Kapoor) [1977, Индия, Сказка, приключения, DVDRip] MVO (Zee TV)

Ответить на тему
 
Автор Сообщение

user ®

Стаж: 12 лет

Сообщений: 15124

Пост Пост: #1 от 11-Авг-2013 07:10

[Цитировать]

Али-Баба и Марджина / Alibaba Marjinaa
-Страна: Индия
Жанр: Мелодрама
Год выпуска: 1977
Продолжительность: 02:34:34-Язык: Хинди
Перевод: Профессиональный (многоголосый, закадровый) - (Zee TV)
Cубтитры: Нет-Режиссер: Кедар Капур / Kedar Kapoor-В ролях: Прем Кришан, Урмила Бхатт, Пинчу Капур, Амриш Пури, Шакти Капур, Бирбал, Джагдип, Джавед Кхан, Рам Мохан, Пайнтал, Шарат Саксена, Мадху Мальхотра, Виджу Кхоте, Д.К. Сапру, Таманна-Описание: О приключениях Алибабы, узнавшего тайну пещеры, в которой разбойники хранили награбленные ими сокровища и, конечно, о его любви к Марджине.-- --Качество видео: DVDRip
Формат видео: AVI-Видео: XVID, 640x480, 25 fps, 1183 Kbps
Аудио: MP3, 44.1 kHz, 2.0 stereo, 128 Kbps--Cинхронизация звука: soso4eg-Спасибо a2nton за оригинальный DVDRip =)-- -
-

Скриншоты


-

MI

Общее
Полное имя : D:\[Релизы]\[DVDRip]\Alibaba.Marjinaa.1977.DVDRip.XviD.soso4eg.avi
Формат : AVI
Формат/Информация : Audio Video Interleave
Размер файла : 1,43 Гбайт
Продолжительность : 2 ч. 34 м.
Общий поток : 1321 Кбит/сек
Программа кодирования : VirtualDubMod 1.5.10.3 | www.virtualdub-fr.org || (build 2550/release)
Библиотека кодирования : VirtualDubMod build 2550/release
Видео
Идентификатор : 0
Формат : MPEG-4 Visual
Профиль формата : Simple@L3
Параметр BVOP формата : Нет
Параметр QPel формата : Нет
Параметр GMC формата : Без точки перехода
Параметр матрицы формата : Default (H.263)
Идентификатор кодека : XVID
Идентификатор кодека/Подсказка : XviD
Продолжительность : 2 ч. 34 м.
Битрейт : 1183 Кбит/сек
Ширина : 640 пикселей
Высота : 480 пикселей
Соотношение сторон : 4:3
Частота кадров : 25,000 кадров/сек
Цветовое пространство : YUV
Субдискретизация насыщенности : 4:2:0
Битовая глубина : 8 бит
Тип развёртки : Прогрессивная
Метод сжатия : С потерями
Бит/(Пиксели*Кадры) : 0.154
Размер потока : 1,28 Гбайт (90%)
Библиотека кодирования : ZJMedia MPEG Encoder
Аудио
Идентификатор : 1
Формат : MPEG Audio
Версия формата : Version 1
Профиль формата : Layer 3
Идентификатор кодека : 55
Идентификатор кодека/Подсказка : MP3
Продолжительность : 2 ч. 34 м.
Вид битрейта : Постоянный
Битрейт : 128 Кбит/сек
Каналы : 2 канала
Частота : 44,1 КГц
Метод сжатия : С потерями
Размер потока : 142 Мбайт (10%)
Выравнивание : Разделение по промежуткам
Продолжительность промежутка : 40 мс. (1,00 видеокадр)
Время предзагрузки промежутка : 500 мс.

-
-
Скачать

Скачать торрент! Али-Баба и Марджина / Alibaba Marjinaa (Кедар Капур / Kedar Kapoor) [1977, Индия, Сказка, приключения, DVDRip] MVO (Zee TV)

Как скачивать? · Что такое торрент? · Рейтинг и ограничения

Сайт не распространяет и не хранит электронные версии произведений, а лишь предоставляет доступ к создаваемому пользователями каталогу ссылок на торрент-файлы, которые содержат только списки хеш-сумм

[Профиль] [ЛС]
Показать сообщения:    
Ответить на тему

Текущее время: Сегодня 13:25

Часовой пояс: GMT + 4



Вы не можете начинать темы
Вы не можете отвечать на сообщения
Вы не можете редактировать свои сообщения
Вы не можете удалять свои сообщения
Вы не можете голосовать в опросах
Вы не можете прикреплять файлы к сообщениям
Вы не можете скачивать файлы