Если ты не со мной / Agar Tum Na Hote (Лекх Тандон / Lekh Tandon) [1983, Индия, Мелодрама, драма, DVDRip] [Полная версия] Dub

Ответить на тему
 
Автор Сообщение

user ®

Стаж: 12 лет

Сообщений: 15124

Пост Пост: #1 от 11-Авг-2013 07:10

[Цитировать]

Если ты не со мной / Agar Tum Na Hote / Полная версия
Страна: Индия
Жанр: Мелодрама, драма
Год выпуска: 1983
Продолжительность: 02:41:29
Перевод: Профессиональный (дублированный)
Cубтитры: нет
Режиссер: Лекх Тандон / Lekh Tandon
В ролях: Раджеш Кханна, Рекха, Радж Баббар, Мадан Пури, Говардан Асрани, Бейби Шабана, Судхир Далви, Юнус Парвез, Сундер, Дулари, Ранвир Радж, Рекха Пармар, Зубайда, Сунил Дхаван, Гулшан Бавра, Сами Малик
Описание: Богатый вдовец нанял в гувернантки молодую красивую женщину, как две капли воды похожую на его покойную жену. И, конечно же, и он, и его дочь полюбили эту красавицу с добрым, отзывчивым сердцем. Но Радха замужем, а ее супруг тяжело болен. Поверьте, мудрость и терпение, с которыми прекрасная женщина выходит из создавшегося положения, достойны подражания...
Роли дублировали: Геннадий Болотов, Людмила Логийко, Виталий Дорошенко, Владимир Шныпарь, Сергей Свечников
На ранее вырезанных фрагментах перевод одноголосый, любительский irinarozze (Спасибо!)
Сэмпл: http://multi-up.com/892581
Качество видео: DVDRip
Формат видео: AVI
Видео: XviD build 50, 640x480 (1.33:1), 23.976 fps, 1094 kbps avg
Аудио: AC3 Dolby Digital, 48 kHz, 2/0 (L,R) ch, 192.00 kbps avg

MediaInfo

General
Complete name : D:\Esli.ti.ne.so.mnoi.1983.XviD.DVDRip-Dego.avi
Format : AVI
Format/Info : Audio Video Interleave
File size : 1.46 GiB
Duration : 2h 41mn
Overall bit rate : 1 295 Kbps
Writing application : VirtualDubMod 1.5.10.2 (build 2540/release)
Writing library : VirtualDubMod build 2540/release
Video
ID : 0
Format : MPEG-4 Visual
Format profile : AdvancedSimple@L5
Format settings, BVOP : Yes
Format settings, QPel : No
Format settings, GMC : No warppoints
Format settings, Matrix : Default (MPEG)
Codec ID : XVID
Codec ID/Hint : XviD
Duration : 2h 41mn
Bit rate : 1 094 Kbps
Width : 640 pixels
Height : 480 pixels
Display aspect ratio : 4/3
Frame rate : 23.976 fps
Resolution : 24 bits
Colorimetry : 4:2:0
Scan type : Progressive
Bits/(Pixel*Frame) : 0.149
Stream size : 1.23 GiB (84%)
Writing library : XviD 1.2.1 (UTC 2008-12-04)
Audio
ID : 1
Format : AC-3
Format/Info : Audio Coding 3
Codec ID : 2000
Duration : 2h 41mn
Bit rate mode : Constant
Bit rate : 192 Kbps
Channel(s) : 2 channels
Channel positions : L R
Sampling rate : 48.0 KHz
Stream size : 222 MiB (15%)
Alignment : Split accross interleaves
Interleave, duration : 42 ms (1.00 video frame)
Interleave, preload duration : 500 ms

Скриншоты

Скачать

Скачать торрент! Если ты не со мной / Agar Tum Na Hote (Лекх Тандон / Lekh Tandon) [1983, Индия, Мелодрама, драма, DVDRip] [Полная версия] Dub

Как скачивать? · Что такое торрент? · Рейтинг и ограничения

Сайт не распространяет и не хранит электронные версии произведений, а лишь предоставляет доступ к создаваемому пользователями каталогу ссылок на торрент-файлы, которые содержат только списки хеш-сумм

[Профиль] [ЛС]
Показать сообщения:    
Ответить на тему

Текущее время: Сегодня 13:53

Часовой пояс: GMT + 4



Вы не можете начинать темы
Вы не можете отвечать на сообщения
Вы не можете редактировать свои сообщения
Вы не можете удалять свои сообщения
Вы не можете голосовать в опросах
Вы не можете прикреплять файлы к сообщениям
Вы не можете скачивать файлы